<?xml version="1.0" standalone="no"?>
<!DOCTYPE svg PUBLIC "-//W3C//DTD SVG 1.1//EN" "http://www.w3.org/Graphics/SVG/1.1/DTD/svg11.dtd" >
<svg xmlns="http://www.w3.org/2000/svg">
<metadata></metadata>
<defs>
<font id="allianceregular" horiz-adv-x="1708" >
<font-face units-per-em="2048" ascent="1638" descent="-410" />
<missing-glyph horiz-adv-x="647" />
<glyph horiz-adv-x="0" />
<glyph unicode="&#xd;" horiz-adv-x="647" />
<glyph unicode=" "  horiz-adv-x="647" />
<glyph unicode="&#x09;" horiz-adv-x="647" />
<glyph unicode="&#xa0;" horiz-adv-x="647" />
<glyph unicode="!" horiz-adv-x="536" d="M102 1599h353l-47 -1187h-175q-10 735 -59 1118q-4 27 -72 69zM176 131q0 59 51 102q47 37 99 37q68 0 108.5 -46t40.5 -103q0 -66 -47 -108t-102 -42q-74 0 -117 62q-33 45 -33 98z" />
<glyph unicode="&#x22;" horiz-adv-x="602" d="M123 1090v473h108v-473h-108zM393 1090v473h109v-473h-109z" />
<glyph unicode="#" horiz-adv-x="1220" d="M86 547v141h297q35 100 37 174v47h-279v142h289q53 240 84 512h145l-73 -512h217q23 100 45 256q35 233 39 256h145l-74 -508h261v-142h-271q-35 -74 -37 -153v-68h250v-141h-268l-84 -549h-147l83 547h-225l-84 -547h-147l84 545h-287zM541 690h221q11 67 29 221h-222 q-6 -61 -28 -221z" />
<glyph unicode="$" horiz-adv-x="1193" d="M168 1182q0 156 137 266q129 102 301 115v176h127v-168q98 -18 299 -66v-248q-174 147 -256 150h-39v-451q250 -135 326 -200q147 -129 147 -305q0 -346 -473 -459q-4 -35 -4 -195h-127v195q-276 37 -418 47v276q35 -41 163 -99t186 -58h67v590q-242 121 -305 172 q-131 106 -131 262zM391 1210q0 -70 58 -116q38 -33 155 -88v399h-39q-68 0 -125 -80q-49 -68 -49 -115zM737 160q102 12 176 97t74 175q0 139 -250 256v-528z" />
<glyph unicode="%" horiz-adv-x="1781" d="M37 1112q0 172 78 309q100 180 295 181q197 0 292 -181q70 -131 70 -305q0 -180 -80 -321q-100 -180 -282 -181q-199 0 -299 187q-74 137 -74 311zM176 1116q0 -125 41 -229q59 -160 189 -160q129 0 188 154q39 102 39 223q0 117 -43 225q-63 160 -195 160 q-125 0 -182 -158q-37 -100 -37 -215zM467 2l764 1561h137l-756 -1561h-145zM1061 457q0 178 84 313q102 170 293 170q201 0 297 -178q71 -131 71 -305q0 -186 -84 -324q-104 -170 -292 -170q-197 0 -295 178q-74 135 -74 316zM1200 461q0 -119 43 -225q63 -162 195 -162 q125 0 186 143q43 100 43 225q0 119 -43 226q-63 160 -194 159q-133 0 -193 -153q-37 -96 -37 -213z" />
<glyph unicode="&#x26;" horiz-adv-x="1859" d="M121 424q0 266 325 512q-186 178 -186 334q0 147 115 241q106 90 254 91q147 0 243.5 -94.5t96.5 -231.5q0 -100 -43 -176q-41 -68 -154 -174q606 -650 1145 -924h-348q-86 -2 -215 86q-29 20 -195 154q-184 -270 -497 -271q-209 0 -361 109q-180 125 -180 344zM373 438 q0 -133 94 -220t235 -87q208 0 351 201l-471 450q-209 -166 -209 -344zM457 1309q0 -55 65 -138q53 -55 107 -110q153 112 153 237q0 63 -48 103.5t-120 40.5q-63 0 -110 -38t-47 -95z" />
<glyph unicode="'" horiz-adv-x="368" d="M160 1090v473h108v-473h-108z" />
<glyph unicode="(" horiz-adv-x="686" d="M131 618q0 221 84 474q90 264 244 471h155q-297 -444 -297 -949q0 -225 68 -460q80 -266 229 -478h-155q-147 197 -236 451q-92 262 -92 491z" />
<glyph unicode=")" horiz-adv-x="579" d="M84 -324q297 428 297 938q0 494 -297 949h156q327 -459 327 -940q0 -463 -327 -947h-156z" />
<glyph unicode="*" horiz-adv-x="837" d="M160 1260q0 2 57 174q113 -94 223 -113q6 12 6 51q0 33 -14 94q-18 72 -41 95h205q-31 -57 -47 -123l8 -113q117 6 211 117l59 -174q-16 2 -34 2q-74 0 -207 -47q94 -145 178 -166q-51 -39 -146 -117q-41 145 -120 223q-94 -100 -111 -223q-53 41 -154 119q27 -10 101 61 q70 66 86 103q-74 39 -260 37z" />
<glyph unicode="+" horiz-adv-x="1198" d="M160 489v134h483v493h129v-489h483v-131h-479v-494h-133v487h-483z" />
<glyph unicode="," horiz-adv-x="587" d="M168 -240q152 135 168 224q-45 25 -88 49q-53 37 -53 98q0 59 39.5 99t101.5 40q68 0 104 -53q35 -45 35 -115q0 -80 -57 -186q-59 -117 -142 -168q-51 0 -81.5 6t-26.5 6z" />
<glyph unicode="-" horiz-adv-x="800" d="M37 477q47 55 92 111q88 100 109 100h483q39 1 88 17q-174 -203 -201 -203h-473q-4 0 -98 -25z" />
<glyph unicode="." horiz-adv-x="540" d="M186 131q0 59 52 102q45 37 98 37q66 0 106.5 -47t40.5 -102q0 -66 -46 -108t-101 -42q-76 0 -117 60q-33 45 -33 100z" />
<glyph unicode="/" horiz-adv-x="954" d="M10 -324l746 1887h166l-738 -1887h-174z" />
<glyph unicode="0" horiz-adv-x="1351" d="M37 778q0 305 133 533q170 291 500 291q326 0 493 -291q131 -225 131 -520q0 -305 -137 -537q-170 -291 -487 -291q-324 0 -498 299q-135 233 -135 516zM289 801q0 -205 63 -379q100 -272 324 -272q205 0 301 260q65 172 65 362q0 209 -71 385q-102 258 -316 258 q-207 0 -303 -244q-63 -164 -63 -370z" />
<glyph unicode="1" horiz-adv-x="972" d="M289 1249q123 35 274 156q160 129 246 270v-1466q4 -133 121 -205h-502q49 18 94 80.5t47 116.5v1048h-280z" />
<glyph unicode="2" horiz-adv-x="1249" d="M66 2q203 285 405 571q358 516 358 613q0 119 -104 182q-78 47 -172 47q-78 0 -191 -41q-121 -41 -221 -106q109 236 174.5 285t276.5 49q176 0 317 -74q188 -100 189 -291q0 -115 -281 -545q-166 -250 -334 -499q164 -25 365 -25q215 0 436 111l-131 -277h-1087z" />
<glyph unicode="3" horiz-adv-x="1196" d="M86 268q215 -119 430 -118q170 0 287 79q137 96 137 265q0 279 -381 278q-100 0 -184 -27v185h75h48q127 0 217 47q123 63 123 197q0 129 -119 194q-86 47 -189 47q-164 0 -360 -121q59 215 143 269q61 39 265 39q190 0 331 -80q180 -102 181 -297q0 -231 -281 -336 q215 -59 308 -156.5t93 -253.5q0 -229 -217 -383q-186 -133 -385 -133h-411z" />
<glyph unicode="4" horiz-adv-x="1325" d="M-18 326l729 1237h331v-1045q6 -6 37 -6q45 0 142 29q110 32 122 65q-39 -94 -77 -186q-57 -117 -138 -117q-37 0 -79 23q-6 -14 -7 -80q0 -176 103 -242h-457q41 18 77 59t36 72v191h-819zM307 528q78 -8 492 -2v852z" />
<glyph unicode="5" horiz-adv-x="1214" d="M113 242q63 -43 192 -70q113 -23 207 -22q180 0 301 73q145 92 145 271q0 174 -145 260q-113 66 -268 65q-166 0 -357 -74l45 818h854v-287q-115 102 -348 102l-284 -8q-27 -238 -27 -256v-115q6 -14 41 -14q23 0 88.5 10.5t93.5 10.5q240 0 400 -123q178 -139 178 -385 q0 -285 -262 -428q-197 -106 -445 -107q-195 0 -264 41q-88 51 -145 238z" />
<glyph unicode="6" horiz-adv-x="1253" d="M47 633q0 375 309 647q299 262 760 328q-37 -49 -106 -144q-172 -31 -379 -182q-342 -252 -342 -649q0 -195 92 -338q115 -174 321 -174q166 0 256 119q74 100 74 249q0 182 -90 285q-94 111 -272 111q-141 0 -258 -82q113 156 166 194q66 45 190 45q233 0 375 -151 q133 -142 133 -361q0 -252 -189 -415q-174 -152 -407 -152q-293 0 -473 217q-160 193 -160 453z" />
<glyph unicode="7" horiz-adv-x="1271" d="M141 1286q31 86 95 277h1011q-164 -391 -327 -783q-258 -618 -258 -678q0 -57 55 -100h-391l596 1360q-16 10 -144.5 26.5t-191.5 16.5q-279 0 -445 -119z" />
<glyph unicode="8" horiz-adv-x="1308" d="M37 406q0 133 84 231q82 92 270 186q-139 57 -219 154.5t-80 214.5q0 215 209 326q156 84 354 84q193 0 349 -80q207 -109 206 -312q0 -111 -66.5 -189.5t-213.5 -160.5q213 -115 289 -196q84 -95 84 -240q0 -244 -244 -369q-178 -92 -393 -92t-394 92q-236 121 -235 351 zM279 432q0 -158 133 -242q111 -70 268 -69q129 0 233 51q148 74 148 219q0 133 -211 252q-184 102 -305 102q-92 0 -185 -124q-82 -111 -81 -189zM336 1237q0 -119 182 -229q160 -96 260 -97q72 0 137 125q54 103 54 150q0 133 -115 200q-92 55 -225 56q-96 0 -176 -37 q-117 -53 -117 -168z" />
<glyph unicode="9" horiz-adv-x="1245" d="M47 1028q0 262 197 422q178 141 422 141q285 0 458 -198q160 -183 160 -443q0 -381 -317 -663q-305 -270 -756 -332q29 57 43 80q33 49 65 63q88 35 177 70q127 53 204 113q170 131 261 309q82 164 81 336q0 188 -94 334q-113 174 -311 174q-160 0 -258 -109 q-90 -102 -90 -254q0 -164 100 -273.5t258 -109.5q53 0 227 55q-96 -143 -154 -178t-175 -35q-213 0 -355.5 142.5t-142.5 355.5z" />
<glyph unicode=":" horiz-adv-x="534" d="M176 131q0 59 51 102q47 37 99 37q66 0 107.5 -47t41.5 -102q0 -66 -47 -108t-102 -42q-74 0 -117 60q-33 45 -33 100zM186 758q0 63 47.5 104t102.5 41q66 0 106.5 -47t40.5 -102q0 -66 -46 -108t-101 -42q-63 0 -106.5 46t-43.5 108z" />
<glyph unicode=";" horiz-adv-x="555" d="M168 -238q49 29 108.5 106t67.5 116q-45 23 -90 45q-59 35 -59 96q0 63 47 104t102 41q74 0 115 -61q35 -48 35 -103q0 -78 -72 -206q-82 -152 -176 -152q-8 0 -35 6t-43 8zM186 764q0 57 46.5 98t103.5 41q66 0 106.5 -46t40.5 -103q0 -66 -46 -108t-101 -42 q-74 0 -117 60q-33 47 -33 100z" />
<glyph unicode="&#x3c;" horiz-adv-x="1316" d="M121 494v129l1179 530q2 -47 -2 -127q-203 -96 -1019 -473l1024 -471v-127q-395 182 -1182 539z" />
<glyph unicode="=" horiz-adv-x="1214" d="M160 328v127h1104v-127h-1104zM160 653v127h1104v-127h-1104z" />
<glyph unicode="&#x3e;" horiz-adv-x="1226" d="M123 -45q0 111 2 127q338 158 1010 471l-1012 473v127l1180 -530v-129q-414 -184 -1180 -539z" />
<glyph unicode="?" horiz-adv-x="948" d="M86 1331q80 166 149.5 218.5t215.5 52.5q197 0 348 -95q188 -114 188 -325q0 -172 -127 -312q-115 -106 -229 -215q-121 -125 -111 -272q-6 -2 -184 -18q0 12 -5 43.5t-5 42.5q0 150 108 262q100 88 203 176q109 109 108 241q0 145 -118 232q-100 72 -232 72 q-176 0 -309 -103zM297 121q0 66 53 108q45 41 96 41q68 0 109 -46t41 -103q0 -66 -47 -108t-103 -42q-59 0 -104 48.5t-45 101.5z" />
<glyph unicode="@" horiz-adv-x="1693" d="M47 772q0 352 254 594q246 236 588 236q281 0 495 -181q236 -195 236 -491q0 -195 -113 -363q-125 -188 -344 -256q-92 -29 -205 0q-74 72 -77 107q-78 -59 -105 -76q-74 -41 -155 -45q-131 0 -205 98q-62 84 -62 205q0 211 131 418q156 248 394 248q154 0 215 -92 q8 18 28 47h209l-289 -775q16 -47 62 -47q174 0 291 199q94 162 94 313q0 242 -189 408q-180 162 -421 162q-299 0 -504 -217q-199 -209 -199 -496q0 -272 199.5 -478t476.5 -206q266 0 516 213l115 129h127q-23 -37 -66 -113q-285 -350 -684 -350q-338 0 -579 244 q-233 240 -234 565zM549 526q0 -117 88 -116q133 0 270 286q117 248 117 361q0 98 -88 98q-104 0 -203 -149q-76 -113 -135 -287q-49 -143 -49 -193z" />
<glyph unicode="A" horiz-adv-x="1726" d="M18 4q33 18 99.5 103.5t83.5 132.5q51 133 299 739q180 438 180 487q0 53 -76 97h381q84 -188 258 -643q170 -438 248 -609q129 -276 213 -307h-485q84 43 84 94q0 18 -66 193.5t-119 296.5h-590q-166 -469 -166 -475q0 -68 84 -109h-428zM588 766h463l-228 594z" />
<glyph unicode="B" horiz-adv-x="1288" d="M94 2q31 20 64 70q37 57 37 102v1217q0 51 -39 108q-31 45 -62 64h654q152 0 274 -95q133 -102 133 -249q0 -201 -244 -312q190 -41 291 -162q92 -110 92 -262q0 -217 -198 -360q-167 -121 -361 -121h-6h-635zM438 932h152q96 0 190 59q113 74 113 191q0 111 -86 174 q-78 59 -189 59q-18 0 -88 -2h-92v-481zM440 168q8 14 45 14q18 0 88 -7t111 -7q137 0 229 59q119 78 119 238q0 168 -141 252q-109 65 -268 65h-5h2l-81 -4q-27 -2 -48 -2q-32 0 -51 4v-612z" />
<glyph unicode="C" horiz-adv-x="1335" d="M47 786q0 373 244 598q236 217 598 218q127 0 422 -58l8 -278q-76 59 -203 99t-237 40q-260 0 -416 -174q-145 -164 -146 -412q0 -266 164 -459q175 -202 442 -202h3h3q248 0 503 149q-43 -213 -172 -289q-98 -55 -310 -55q-397 0 -641 203q-262 221 -262 620z" />
<glyph unicode="D" horiz-adv-x="1548" d="M84 2q37 29 69.5 83t32.5 89v1225q0 102 -102 164h674q340 0 563 -217t223 -555q0 -326 -232.5 -557.5t-553.5 -231.5h-674zM434 168q26 4 67 4h29q74 -3 74 -4h-4q285 0 469 141q207 162 207 459q0 299 -161 458.5t-464 159.5q-106 0 -217 -28v-1190z" />
<glyph unicode="E" horiz-adv-x="1130" d="M102 2q33 20 66 70q37 57 37 102v1217q0 88 -103 174h873v-262q-78 94 -295 94q-237 0 -237 -2h1v-443q100 -10 200 -10t200 10v-243q-18 23 -60.5 43t-62.5 22h-272v-561q209 -37 348 -37q129 0 206.5 27.5t186.5 111.5l-103 -313h-985z" />
<glyph unicode="F" horiz-adv-x="968" d="M84 4q31 18 66.5 71.5t35.5 98.5v1217q0 88 -102 174h883v-262q-78 94 -312 94q-14 0 -110 -4q-20 -1 -39 -1q-40 0 -80 5v-445q100 -10 199.5 -10t199.5 10v-243q-20 23 -58 43t-56 22h-283v-612q0 -31 37 -93.5t65 -64.5h-446z" />
<glyph unicode="G" horiz-adv-x="1605" d="M47 772q0 424 328 647q270 182 657 183q121 0 371 -39v-269q-166 139 -426 140q-283 0 -467 -166q-193 -172 -193 -459q0 -301 211 -496q201 -182 486 -182q154 0 317 53v443q0 49 -39 102q-33 47 -73 70h362v-770q-377 -66 -561 -66q-393 0 -655 176q-317 213 -318 633z " />
<glyph unicode="H" horiz-adv-x="1685" d="M84 4q31 18 66 68q37 57 36 102v1225q0 35 -40 96t-62 66h446q-35 -20 -65 -64q-37 -53 -37 -104v-451h856v457q0 35 -35 94t-67 68h446q-23 -8 -62.5 -77t-39.5 -91v-1221q0 -31 33 -86q35 -63 69 -82h-446q33 18 65 68q37 57 39 102v598h-858v-600q0 -47 37 -98 q31 -45 65 -70h-446z" />
<glyph unicode="I" horiz-adv-x="595" d="M94 4q31 18 64 68q37 57 37 102v1217q0 51 -39 106q-33 47 -62 64h447q-35 -20 -66 -64q-37 -53 -37 -104v-1221q0 -47 33 -95t70 -73h-447z" />
<glyph unicode="J" horiz-adv-x="595" d="M-84 -547q123 68 206 197t83 244v1497q0 51 -39 106q-33 47 -64 64h447q-35 -23 -64 -64q-39 -53 -39 -104v-1575q0 -158 -194 -264q-160 -90 -336 -101z" />
<glyph unicode="K" horiz-adv-x="1480" d="M94 4q100 82 101 170v1217q0 90 -101 170h447q-35 -20 -66 -64q-37 -53 -37 -104v-1221q0 -47 33 -95t70 -73h-447zM465 815q117 150 233 299q213 287 213 342q0 35 -16 57q-6 8 -57 48h428l-539 -701q72 -84 234 -313q156 -223 247 -326q146 -162 281 -219h-283h-1 q-123 0 -392 346q-174 233 -348 467z" />
<glyph unicode="L" horiz-adv-x="1120" d="M102 2q33 20 66 70q37 57 37 102v1217q0 90 -103 170h447q-35 -20 -66 -64q-37 -53 -37 -104v-1190q233 -36 331 -36q18 0 32 1q203 16 389 147l-121 -313h-975z" />
<glyph unicode="M" horiz-adv-x="2095" d="M0 4q90 72 109 189q43 270 110 755q59 442 60 467q0 106 -84 146h417l482 -1151q121 297 241 596q158 397 193 555h418q-74 -31 -74 -142q0 6 33 -260q31 -254 59 -510q41 -319 86 -532q6 -31 90 -113h-454q102 27 102 168l-137 1131l-537 -1330q-72 8 -203 279 q-80 164 -243 565q-158 389 -215 504l-156 -1149q-2 -8 -2 -17q0 -29 20 -71q29 -61 76 -80h-391z" />
<glyph unicode="N" horiz-adv-x="1685" d="M74 4q37 16 80 70q51 66 51 119v1179q0 78 -121 191h342l944 -1201v1010q-2 78 -123 189h410q-37 -37 -76 -74q-45 -51 -45 -113v-1448h-7q-89 0 -296 228q-131 147 -428 532q-301 393 -426 535l-6 -1012q2 -125 121 -205h-420z" />
<glyph unicode="O" horiz-adv-x="1841" d="M55 786q0 362 283 598q258 217 598 218q350 0 598 -218q262 -229 262 -587q0 -367 -272 -609q-254 -225 -602 -225q-360 0 -613.5 236.5t-253.5 586.5zM479 356q176 -225 457 -225q264 0 430 178q160 175 160 441q0 260 -148 458q-172 225 -452 226q-272 0 -441 -181 q-159 -171 -159 -441q0 -257 153 -456z" />
<glyph unicode="P" horiz-adv-x="1185" d="M113 4q31 18 63 68q39 57 39 102v1206q0 35 -27 93q-33 72 -75 90h653q182 0 322.5 -124t140.5 -294q0 -213 -178 -340q-154 -106 -344 -107q-70 0 -162 33q174 8 293.5 113.5t119.5 253.5q0 288 -342 288h-2q-152 0 -151 0l-6 -1177q2 -131 121 -205h-465z" />
<glyph unicode="Q" horiz-adv-x="1984" d="M37 782q0 365 272 598q256 221 609 222q350 0 598 -216q262 -227 262 -585q0 -205 -95 -385q-111 -211 -323 -328q436 -398 740 -398q13 0 26 1q-127 -119 -293 -119q-127 0 -322 106q-123 68 -299 197q-145 106 -155 107q-10 0 -92 -9.5t-95 -9.5q-346 0 -589.5 236.5 t-243.5 582.5zM307 819q0 -264 152 -463q172 -225 459 -225q264 0 430 178q159 175 159 441q0 262 -149 458q-170 225 -459 226q-264 0 -432 -181q-160 -172 -160 -434z" />
<glyph unicode="R" horiz-adv-x="1484" d="M92 4q29 8 66 66.5t37 93.5v1227q0 51 -39 108q-31 45 -62 64h645q152 0 275 -105q131 -115 131 -276q0 -279 -373 -424q156 -195 309 -387q201 -234 400 -369h-275h-1q-131 0 -412 375q-211 279 -289 434q176 31 280 109q119 90 119 229q0 133 -100 205q-84 61 -199 61 q-100 0 -168 -26v-1217q2 -47 35 -95t70 -73h-449z" />
<glyph unicode="S" horiz-adv-x="1132" d="M31 326q98 -94 248 -148q131 -47 256 -47q115 0 217 55q133 72 133 195q0 154 -213 266q-197 98 -393 197q-213 135 -213 342q0 233 225 340q158 76 375 76q141 0 348 -50l8 -268q-70 70 -182 111q-102 39 -197 39q-117 0 -199 -41q-109 -57 -108 -179q0 -143 211 -249 q199 -94 395 -187q213 -130 213 -327q0 -246 -246 -383q-188 -104 -407 -105q-94 0 -223 21q-137 23 -183 49q-45 162 -65 293z" />
<glyph unicode="T" horiz-adv-x="1157" d="M-82 1294l76 287q55 -27 78 -27h1020q14 0 30.5 9.5t30.5 17.5l-78 -287q-10 20 -64.5 56t-76.5 39h-283v-1199q0 -35 39 -98q41 -70 82 -88h-465q31 18 66 68q37 57 37 102v1212h-275q-37 0 -119 -36q-66 -31 -98 -56z" />
<glyph unicode="U" horiz-adv-x="1576" d="M55 1561h447q-35 -20 -64 -64q-39 -53 -39 -104v-895q0 -164 108.5 -265.5t270.5 -101.5q111 0 236 66q160 84 160 219v975q0 49 -39 102q-31 45 -64 68h447q-37 0 -72 -72q-31 -63 -31 -107v-1210q0 -47 34 -96t77 -74h-361q8 43 8 83q0 34 -6 65q-55 -84 -204 -140 q-133 -47 -256 -47q-190 0 -353 105q-197 129 -196 348v983q0 37 -35 95t-68 67z" />
<glyph unicode="V" horiz-adv-x="1458" d="M-37 1561h342q35 -178 174 -564q37 -100 271 -708q115 293 229 585q176 457 176 545q0 45 -22 84q-23 47 -62 58h352l-626 -1635q-57 33 -115 68q-72 49 -102 102q-63 117 -322 824q-221 608 -295 641z" />
<glyph unicode="W" horiz-adv-x="2267" d="M0 1561h342q29 -172 141 -523q119 -365 238 -731q39 74 182 539q150 483 150 559q0 109 -84 156h323q12 -178 146 -576q217 -655 223 -678l332 1086v9q0 42 -33 92q-37 56 -88 67h360l-495 -1635q-199 139 -297 344q-51 111 -123 400q-72 283 -158 456l-371 -1200 l-126 86q-76 55 -101 103q-86 168 -201 547q-158 524 -178 583q-98 281 -182 316z" />
<glyph unicode="X" horiz-adv-x="1521" d="M-66 2l652 836l-254 376q-176 258 -303 349h309q31 0 188 -222q111 -164 224 -327q41 39 165 203q145 197 146 253q0 47 -23 66q-18 12 -69 25h436l-539 -701q160 -246 322 -491q200 -304 319 -367h-290h-1q-46 0 -260 307q-127 184 -254 371q-102 -135 -204 -268 q-190 -254 -191 -306q0 -33 8 -43q14 -23 76 -61h-457z" />
<glyph unicode="Y" horiz-adv-x="1380" d="M-66 1561h256h1q74 0 286 -330q106 -178 215 -357q86 125 172 252q168 254 168 312q0 61 -82 123h408q-10 -18 -293 -422q-190 -274 -281 -457q-18 -35 -18 -94q0 -41 8 -96l8 -54q0 -16 -3 -63t-3 -76q0 -213 127 -295h-465q82 47 99 160q4 29 4 260l6 58q6 59 6 102 q0 68 -16 98q-96 182 -287 481q-252 398 -315 398h-1z" />
<glyph unicode="Z" horiz-adv-x="1363" d="M18 2l856 1360l-423 24q-96 0 -136 -10q-59 -16 -202 -90l123 266h1038l-846 -1349q328 -35 526 -35q127 0 232 33q88 26 219 96l-131 -295h-1256z" />
<glyph unicode="[" horiz-adv-x="606" d="M121 -324q20 14 52 65.5t32 78.5v1589q0 27 -27.5 78t-56.5 74h528v-125h-239v-1629h239v-131h-528z" />
<glyph unicode="\" horiz-adv-x="995" d="M178 1571h146l653 -1569h-146z" />
<glyph unicode="]" horiz-adv-x="653" d="M57 -197h240v1627h-240v131h529q-31 -25 -57.5 -73t-26.5 -77v-1593q0 -25 30.5 -75.5t53.5 -66.5h-529v127z" />
<glyph unicode="^" horiz-adv-x="1249" d="M150 616q184 356 493 947h119q210 -410 493 -947h-137q-137 270 -416 807l-415 -807h-137z" />
<glyph unicode="_" horiz-adv-x="1110" d="M2 -178h1188v-127h-1188v127z" />
<glyph unicode="`" horiz-adv-x="772" d="M158 1354q25 27 68.5 86t66.5 86l498 -369z" />
<glyph unicode="a" horiz-adv-x="1142" d="M37 326q0 193 184 266q6 2 340 74q184 39 184 149q0 84 -88 125q-61 29 -141 29q-125 0 -301 -82q104 178 137 205q42 34 175 34h8q137 0 260 -55q174 -80 174 -237v-551q-1 -136 194 -156q-12 -14 -94 -154h-49q-86 0 -174 58q-98 68 -101 159l-8 406 q-76 -45 -212 -73.5t-173 -51.5q-74 -43 -73 -145q0 -106 92 -158q66 -37 159 -37q33 0 168 25l-102 -140q-47 -45 -150 -45q-170 0 -286 97q-123 100 -123 258z" />
<glyph unicode="b" horiz-adv-x="1232" d="M84 1561h156h9q84 0 140 38v-1433q125 -35 193 -35q197 0 305 119q100 109 100 291q0 172 -80 280q-92 129 -270 129q-113 0 -188 -55q84 160 123.5 195.5t158.5 35.5q233 0 375 -178q123 -157 123 -370q0 -315 -236 -478q-190 -129 -471 -129l-430 43q14 2 45 37t31 58 v1329q0 31 -84 123z" />
<glyph unicode="c" horiz-adv-x="1097" d="M55 530q0 291 217 455q188 141 467 141q113 0 246 -30v-240q-139 113 -297 113q-182 0 -291 -119q-100 -111 -100 -272q0 -199 156 -328q143 -119 333 -119q197 0 357 119q-72 -190 -180 -244q-68 -35 -246 -35q-254 0 -445 140q-217 158 -217 419z" />
<glyph unicode="d" horiz-adv-x="1314" d="M55 545q0 244 162 412.5t401 168.5q221 0 363 -139q6 47 6 227q0 10 2 50v63q0 203 -96 236h246q37 2 69 39v-1459q2 -29 27 -73q31 -54 68 -68h-316v680q0 127 -121 213q-102 74 -219 74q-158 0 -258 -129q-92 -115 -92 -262q0 -178 117 -310q121 -137 299 -137 q98 0 198 53q-55 -86 -108 -174q-33 -39 -137 -39q-260 0 -430 152q-180 160 -181 422z" />
<glyph unicode="e" horiz-adv-x="1171" d="M55 559q0 256 181 416q167 151 408 151h3q180 0 346 -112q197 -131 197 -338v-88h-866q-6 -6 -7 -43q0 -201 164 -318q139 -96 316 -96q203 0 374 111q-45 -180 -188 -238q-78 -33 -238 -33q-268 0 -464 144q-225 164 -226 444zM328 719h610q-18 133 -123 199 q-78 51 -178 51q-119 0 -204 -67.5t-105 -182.5z" />
<glyph unicode="f" horiz-adv-x="772" d="M37 932q39 37 76 72q45 47 43 79q-4 35 -4 68q0 250 170 369q129 90 321 90q6 0 79.5 -6.5t104.5 -6.5q-152 -182 -165 -182q-12 0 -61.5 18.5t-59.5 18.5q-72 0 -116 -36t-44 -97v-215q59 -18 149 -19q94 0 166 19v-211q-35 37 -59 39h-256v-760q0 -33 36 -90t66 -78 h-417q12 2 52 52t42 71v805h-123z" />
<glyph unicode="g" horiz-adv-x="1409" d="M0 -219q0 102 88 153q66 37 145 37q57 0 129 -32q-53 -10 -71 -41q-12 -20 -12 -70q0 -227 383 -227q139 0 245 37q172 59 172 204q0 223 -479 224q-10 0 -80.5 -5.5t-81.5 -5.5q-59 0 -113.5 48.5t-54.5 111.5t58 86q104 43 110 47q-299 129 -299 377q0 172 160 293 q137 106 285 106h8h766q-23 -53 -45 -108q-33 -76 -88 -76q-6 0 -91 11.5t-128 11.5q88 -80 118.5 -137.5t30.5 -137.5q0 -145 -108 -233q-78 -63 -242 -111q-244 -70 -248 -72v-34q35 -33 72 -33h231q164 0 301 -84q160 -98 160 -260q0 -240 -277 -348q-178 -72 -389 -72 q-172 0 -362 61q-293 92 -293 279zM381 758q0 -113 87 -198t208 -85q90 0 160 57q75 66 75 170q0 119 -84 193t-202 74q-100 0 -166 -49q-78 -57 -78 -162z" />
<glyph unicode="h" horiz-adv-x="1243" d="M66 4q12 4 52 53t40 70v1311q0 12 -37 62t-55 63h235q25 2 78 36l8 -622q110 149 345 149h3q147 0 262 -77q137 -92 138 -261v-663q0 -18 33.5 -62.5t60.5 -58.5h-400q35 31 43 41q23 25 27 45q12 61 12 324q0 23 3.5 82t3.5 94q0 379 -271 379q-272 0 -272 -355 q0 -37 3 -102.5t3 -87.5q0 -352 94 -420h-409z" />
<glyph unicode="i" horiz-adv-x="548" d="M74 4q12 4 53 53t41 70v844q0 14 -38 63t-56 60q6 1 45 1t112 -1q86 0 158 51v-1002q2 -29 27 -73q30 -54 67 -66h-409zM113 1391q0 63 47 104t110 41q61 0 105.5 -47.5t44.5 -102.5q0 -61 -46 -105t-104 -44q-66 0 -111.5 48t-45.5 106z" />
<glyph unicode="j" horiz-adv-x="499" d="M-55 -539q100 49 170 172q61 111 61 205v1133q0 14 -37 63t-55 60q78 0 158 2q88 0 157 39v-1336q0 -129 -153 -241q-136 -97 -240 -97h-2h-59zM121 1391q0 63 48 104t110 41q63 0 102 -46.5t39 -103.5q0 -70 -46 -109.5t-104 -39.5q-61 0 -105 46t-44 108z" />
<glyph unicode="k" horiz-adv-x="1112" d="M76 2q20 29 43 57q39 49 39 68v1311q0 31 -82 123h153h9q84 0 143 38v-1456q0 -29 27 -73q30 -54 67 -68h-399zM428 610q84 94 168 189q149 171 149 220q0 30 -47 77h353l-389 -459l270 -350q158 -207 260 -283q-53 -22 -106 -22h-5q-166 0 -354 227q-150 201 -299 401z " />
<glyph unicode="l" horiz-adv-x="495" d="M84 2q23 29 45 57q39 49 39 68v1311q0 31 -84 123h160q100 0 145 41v-1459q2 -69 86 -141h-391z" />
<glyph unicode="m" horiz-adv-x="1982" d="M55 4q12 4 53.5 53t41.5 70v844q0 14 -38 64t-57 61h238q25 10 78 30q0 -133 8 -186q109 186 323 186q246 0 373 -204q96 121 191 168q74 36 184 36h6q176 0 293 -96q131 -106 131 -299v-598q0 -29 32.5 -69t69.5 -60h-417q59 43 77 146q14 76 15 245q0 18 2 70v84 q0 420 -268 420q-270 0 -271 -373q0 -39 3 -101.5t3 -80.5q0 -186 13 -262q20 -104 80 -148h-408q57 43 78 146q14 76 14 245q0 12 2 58v75q0 440 -276 441q-262 0 -262 -373q0 -39 3 -99.5t3 -76.5q0 -246 2 -266q12 -98 82 -150h-402z" />
<glyph unicode="n" horiz-adv-x="1296" d="M66 4q12 4 52 53t40 70v836q0 33 -37 79q-29 37 -55 54h157q90 2 156 30q0 -131 8 -176q109 176 326 176q158 0 280 -86q141 -98 142 -262v-653q0 -18 33.5 -62.5t60.5 -58.5h-410q61 45 80 127q12 70 12 275q0 25 2 82t2 87q0 180 -47 269q-66 125 -235 125 q-152 0 -213 -99q-45 -74 -45 -219q0 -39 3 -109.5t3 -99.5q0 -238 14 -307q16 -86 80 -131h-409z" />
<glyph unicode="o" horiz-adv-x="1294" d="M55 541q0 268 199 434q179 151 431 151h3q244 0 416 -169t172 -398q0 -264 -199 -432q-180 -156 -422 -156q-246 0 -419 162q-180 164 -181 408zM297 582q0 -162 84 -291q104 -160 289 -160q164 0 268 121q94 112 94 264q0 176 -84 301q-104 152 -293 152 q-168 0 -268 -125q-90 -109 -90 -262z" />
<glyph unicode="p" horiz-adv-x="1314" d="M66 -481q12 4 52 54t40 71v1327q0 14 -37 64t-55 61h245q39 4 68 20q0 -111 8 -158q57 82 180 125q98 33 205 33q246 0 397 -168q144 -160 144 -385q0 -252 -161 -422t-407 -170q-102 0 -153 33q-70 43 -143 184q143 -57 249 -57q193 0 291 127q82 106 82 272 q0 164 -82 285q-98 143 -276 143q-96 0 -199 -59q-133 -76 -133 -194v-1065q0 -18 32.5 -61.5t61.5 -59.5h-409z" />
<glyph unicode="q" horiz-adv-x="1359" d="M55 502q0 250 171 423q169 171 415 171h6h647q-94 -72 -94 -131v-1315q0 -27 31.5 -68t62.5 -61h-409q23 0 57.5 52t34.5 79v1235q-63 43 -250 43q-182 0 -301 -96q-129 -104 -129 -285q0 -193 129 -309q121 -109 301 -109q127 0 184 35q-82 -137 -116 -162 q-41 -33 -158 -33q-236 0 -401 140q-180 150 -181 391z" />
<glyph unicode="r" horiz-adv-x="823" d="M84 4q12 4 52 53t40 70v836q0 16 -29.5 64t-52.5 69h154q90 0 149 30q0 -131 9 -176q98 176 264 176q10 0 44 -5t48 -5v-221q-45 35 -119 35q-248 0 -248 -346q0 -37 2 -97.5t2 -80.5q0 -336 95 -402h-410z" />
<glyph unicode="s" horiz-adv-x="1001" d="M31 260q201 -129 434 -129q270 0 270 154q0 104 -166 166q-156 57 -309 112q-168 86 -168 246q0 180 180 262q123 55 301 55q113 0 244 -30v-201q-41 31 -133 53q-84 20 -149 21q-217 0 -218 -113q0 -80 166 -143q285 -109 310 -121q165 -94 165 -248q0 -197 -206 -299 q-150 -74 -328 -74t-248 37q-109 59 -145 252z" />
<glyph unicode="t" horiz-adv-x="729" d="M47 928v86q145 27 219 147q63 100 64 236q0 23 -2 45h100v-338q57 -18 150 -19q94 0 163 19v-219q-43 45 -86 47h-227v-613q0 -84 72 -139q66 -49 143 -49q64 0 111 25q-25 -23 -105 -133q-37 -51 -119 -52q-133 0 -229 95.5t-96 228.5v633q-44 4 -83.5 4t-74.5 -4z" />
<glyph unicode="u" horiz-adv-x="1294" d="M66 1094q78 2 157 2q88 0 158 39v-695q0 -119 63 -194q70 -88 199 -88q274 0 275 383q0 39 -3.5 91t-3.5 62q0 334 -92 404h246q35 2 70 37v-1010q0 -18 33.5 -62.5t60.5 -60.5h-326q9 45 9 89q0 33 -5 67q-109 -186 -329 -187q-190 0 -305 114t-115 294v592q0 14 -37 63 t-55 60z" />
<glyph unicode="v" horiz-adv-x="1159" d="M-92 1098h254q23 2 78 37l378 -893q43 72 177 358q155 328 155 386t-76 110h326l-532 -1143q-199 129 -322 371q-90 211 -180 421q-106 240 -258 353z" />
<glyph unicode="w" horiz-adv-x="1802" d="M-27 1096h142q80 0 143 39l305 -846l266 698q1 7 1 14q0 60 -66 95h305l277 -817l264 704q-4 18 -30 59t-44 54h307l-469 -1143q-109 47 -190 203q-49 92 -125 317q-74 219 -123 309l-326 -829q-180 133 -278 336q-20 39 -142 385q-90 250 -217 422z" />
<glyph unicode="x" horiz-adv-x="1253" d="M-37 2l512 571q-106 141 -215 285q-137 178 -231 238h235h2q68 0 189 -152q82 -109 163 -217q59 66 119 131q100 117 101 162q0 18 -16.5 42.5t-39.5 33.5h381l-436 -504q109 -152 219 -301q140 -187 273 -289h-273h-1q-48 0 -195 197q-84 115 -168 229 q-23 -10 -150 -160q-135 -158 -135 -194q0 -33 57 -72h-391z" />
<glyph unicode="y" horiz-adv-x="1214" d="M-102 -424l208 154q92 -55 140 -56q102 0 203 144q92 127 92 200q0 6 -49 76q-57 78 -76 113q-113 223 -226 485q-92 221 -124 275q-55 94 -140 129h246h1q66 0 222 -338q121 -272 242 -543q74 180 149 360q135 342 136 402q0 41 -9 59q-12 27 -57 60h326 q-96 -145 -254 -611q-162 -471 -279 -659q-195 -309 -467 -309q-119 0 -284 59z" />
<glyph unicode="z" horiz-adv-x="1134" d="M-8 2l659 903q-125 25 -282 25q-174 0 -301 -82l120 250h836l-625 -905q242 -35 387 -35q183 0 349 102l-131 -258h-1012z" />
<glyph unicode="{" horiz-adv-x="538" d="M84 657q55 -8 111.5 49.5t56.5 118.5v510q0 113 80 176q68 51 157 50h70q-61 -8 -114.5 -62.5t-53.5 -116.5v-522q0 -59 -47 -121q-55 -70 -139 -84q80 -12 133 -72.5t53 -119.5v-553q0 -53 52.5 -108.5t115.5 -67.5q-23 -2 -43 -2q-109 0 -186.5 58t-77.5 151v557 q0 53 -66.5 111.5t-101.5 47.5z" />
<glyph unicode="|" horiz-adv-x="886" d="M643 2v1569h137v-1569h-137z" />
<glyph unicode="}" horiz-adv-x="548" d="M92 -268q43 -10 101.5 59.5t58.5 120.5v547q0 61 55 125.5t131 70.5q-72 10 -129 69.5t-57 137.5v529q0 39 -45 102q-53 74 -105 68h88q82 2 141.5 -72t59.5 -152v-514q0 -55 54 -110.5t122 -55.5q-43 -8 -104 -53q-72 -53 -72 -104v-561q0 -102 -96 -162 q-74 -47 -143 -45h-60z" />
<glyph unicode="~" horiz-adv-x="1300" d="M113 469q88 129 161.5 179t176.5 50q96 0 286.5 -74.5t243.5 -74.5q109 0 223 158q56 -44 99 -58q-90 -135 -164 -182q-61 -39 -158 -39q-88 0 -288.5 75t-241.5 75q-131 0 -240 -179q-45 33 -98 70z" />
<glyph unicode="&#xa1;" horiz-adv-x="538" d="M186 977q0 68 47.5 108.5t102.5 40.5q66 0 106.5 -46t40.5 -103q0 -66 -46 -108t-101 -42q-66 0 -111 54q-39 45 -39 96zM207 -500l45 1188h174q6 -643 59 -1112q2 -12 30 -41t44 -35h-352z" />
<glyph unicode="&#xa2;" horiz-adv-x="1110" d="M205 852q0 195 131 354q143 176 373 199q14 115 0 242h137v-234q70 -10 205 -29v-210q-70 78 -201 83v-786q4 -6 31 -6q35 0 111.5 38t125.5 83q-10 -147 -49 -203q-59 -88 -215 -76q-14 -109 0 -231h-135v223q-258 41 -393 203q-121 145 -121 350zM428 870 q0 -135 64 -233q73 -119 223 -162v772q-147 -33 -223 -149q-63 -96 -64 -228z" />
<glyph unicode="&#xa3;" horiz-adv-x="1189" d="M158 143q0 109 106 158q70 35 156 35q45 0 188 -29q25 31 25 131q0 129 -109 307h-233v138q70 -16 137 -2q-76 104 -103.5 169.5t-27.5 149.5q0 195 152 305q131 96 305 97q131 0 297 -68q-4 -152 18 -248q-164 129 -291 129q-84 0 -153 -45q-84 -53 -84 -145t192 -351 h262v-129h-168q4 -45 27 -153q20 -98 20 -109q0 -111 -73 -245q68 -43 139 -43q133 -1 242 73q-10 -8 -11 -248q-152 -57 -235 -57q-98 0 -192.5 51.5t-88.5 51.5q8 0 -81 -51.5t-183 -51.5q-84 0 -151 41q-82 51 -82 139zM289 113q47 -29 88 -29q84 0 145 70 q-51 51 -141 51q-55 0 -92 -39v-53z" />
<glyph unicode="&#xa4;" horiz-adv-x="1236" d="M55 385q6 8 49 53q35 37 35 51q0 -2 -36.5 131.5t-36.5 151.5q0 123 36.5 200t36.5 85q0 12 -30 41q-47 45 -54 51q25 29 78 87t76 85q27 -29 53 -55q35 -37 49 -37q-8 0 86.5 37t198.5 37q113 0 198 -37l85 -37q12 0 43 31q49 53 61 61l152 -162q-18 -29 -93 -102 q37 -31 62 -131q23 -86 22 -154q0 -68 -20 -145q-25 -90 -64 -138l93 -94q-18 -29 -154 -162q-76 84 -102 84q10 0 -83.5 -37.5t-199.5 -37.5q-123 0 -200 37.5t-85 37.5q-10 0 -43 -32q-47 -43 -59 -52zM289 768q0 -127 94 -215t217 -88q117 0 210 88t93 219q0 121 -88 214 t-215 93q-135 0 -223 -93t-88 -218z" />
<glyph unicode="&#xa5;" horiz-adv-x="1443" d="M0 1563h283q68 0 280 -328q111 -180 223 -361q90 137 181 273q160 246 159 301q0 63 -73 113h389l-391 -580h315v-133h-383q-35 -49 -119 -154h502v-135h-502v-387q2 -35 35 -88q39 -61 88 -80h-475q35 -6 76 57q37 57 37 95v399h-494v141h494l-101 152h-393v137h315 q-41 51 -129 208t-141 226q-88 113 -176 144z" />
<glyph unicode="&#xa6;" horiz-adv-x="878" d="M643 2v518h137v-518h-137zM643 1044v519h137v-519h-137z" />
<glyph unicode="&#xa7;" horiz-adv-x="1114" d="M139 707q0 193 197 331q-37 25 -64 103q-20 66 -20 116q0 184 170 273q121 61 285 61q184 0 305 -57v-240q-84 139 -305 140q-86 0 -150 -33q-82 -41 -82 -125q0 -86 162 -172q270 -145 299 -168q162 -121 162 -289q0 -203 -168 -336q29 -55 56.5 -110.5t27.5 -126.5 q0 -225 -178 -340q-139 -88 -338 -88q-66 0 -183 22q-125 20 -174 45v248q152 -76 176 -86q102 -43 191 -43q96 0 170 47q94 59 94 168q0 115 -164 209q-152 84 -305 168q-164 117 -164 283zM362 764q0 -121 187 -227q133 -68 266 -138q31 20 57 93q21 59 21 90 q0 98 -176 227q-166 121 -256 121q-43 0 -74 -76q-25 -57 -25 -90z" />
<glyph unicode="&#xa8;" horiz-adv-x="925" d="M158 1386q0 66 49 111q45 39 100 39q70 0 109 -57q30 -44 30 -93q0 -59 -43 -103t-100 -44q-63 0 -104 47t-41 100zM596 1386q0 66 49 111q45 39 100 39q70 0 109 -61q31 -46 31 -89q0 -66 -45 -106.5t-101 -40.5q-61 0 -102 47t-41 100z" />
<glyph unicode="&#xa9;" horiz-adv-x="1695" d="M10 786q0 340 243 578t574 238q346 0 586 -244q234 -240 234 -572q0 -348 -242 -585.5t-582 -237.5q-338 0 -575.5 244t-237.5 579zM139 786q0 -281 189 -485q201 -217 499 -217q281 0 484 197q207 204 207 501q0 276 -189 482q-199 217 -502 217q-289 0 -488.5 -206 t-199.5 -489zM373 772q0 211 123 352q133 152 356 152q115 0 225 -51q154 -72 189 -217q-51 -10 -148 -39q-12 113 -100 170q-72 43 -166 43q-178 0 -268 -138q-72 -109 -72 -262q0 -160 78 -264q90 -119 252 -119q221 0 297 215q78 -20 123 -39q-27 -137 -185 -215 q-125 -63 -250 -63q-217 0 -340 143q-115 131 -114 332z" />
<glyph unicode="&#xaa;" horiz-adv-x="772" d="M121 1141q0 104 106 147q98 25 197 47q106 27 106 88q0 84 -135 84q-109 0 -180 -53q61 102 72 113q35 35 119 35q66 0 141 -33q104 -45 104 -121v-346q0 -23 47 -45q42 -19 60 -17q-12 -25 -25 -51q-23 -39 -49 -39q-39 0 -88 23q-66 33 -64 84v237q-84 -23 -165 -43 q-106 -33 -107 -110q0 -106 146 -107q51 0 96 17q-68 -88 -82 -99.5t-66 -11.5q-84 0 -151 49q-82 57 -82 152zM131 680v100h631v-100h-631z" />
<glyph unicode="&#xab;" horiz-adv-x="821" d="M186 586l244 381h72l-129 -375l129 -377h-72zM483 586l254 381h72l-139 -381l139 -369q-55 0 -109 59q-33 37 -101.5 146.5t-115.5 163.5z" />
<glyph unicode="&#xac;" horiz-adv-x="1302" d="M160 649v131h1104v-667h-127v536h-977z" />
<glyph unicode="&#xad;" horiz-adv-x="800" d="M37 477q47 55 92 111q88 100 109 100h483q39 1 88 17q-174 -203 -201 -203h-473q-4 0 -98 -25z" />
<glyph unicode="&#xae;" horiz-adv-x="1695" d="M10 786q0 342 243 579t581 237q342 0 577.5 -243t235.5 -581q0 -342 -243 -578.5t-581 -236.5q-340 0 -576.5 243t-236.5 580zM139 786q0 -281 189 -485q199 -217 495 -217q285 0 490 199.5t205 498.5q0 287 -200 493t-495 206q-285 0 -484.5 -206t-199.5 -489zM496 309 v965h522q117 2 191.5 -73.5t74.5 -190.5q0 -244 -297 -273l279 -426q-35 -18 -70 -18q-74 0 -141 92q-35 47 -109 190q-63 127 -106 170h-203v-436h-141zM635 848h309q72 0 127 35q74 47 74 137q0 66 -50.5 110t-113.5 41h-346v-323z" />
<glyph unicode="&#xaf;" horiz-adv-x="1087" d="M160 1378v156h862v-156h-862z" />
<glyph unicode="&#xb0;" horiz-adv-x="843" d="M121 1247q0 139 106.5 251t251.5 112t252 -112t107 -251q0 -147 -112 -254.5t-247 -107.5q-145 0 -251.5 112.5t-106.5 249.5zM223 1247q0 -96 68 -174q76 -86 188 -86q104 0 180 77t76 183q0 98 -67 174q-76 86 -193 86q-100 0 -176 -76.5t-76 -183.5z" />
<glyph unicode="&#xb1;" horiz-adv-x="1288" d="M160 2v127h1095v-127h-1095zM160 621v131h483v354h129v-348h483v-133h-479v-363h-133v359h-483z" />
<glyph unicode="&#xb2;" horiz-adv-x="808" d="M29 643q125 166 252 332q242 324 241 379q0 70 -61 104q-49 31 -121 31q-51 0 -129 -25.5t-125 -56.5q49 129 113 168q47 27 163 27q111 0 209 -43q135 -59 136 -177q0 -78 -185 -327q-113 -147 -225 -295q96 -25 238 -25q74 0 159 21q94 22 133 53q-27 -53 -84 -166 h-714z" />
<glyph unicode="&#xb3;" horiz-adv-x="780" d="M39 795q133 -68 268 -68q98 0 176 41q102 55 103 168q0 172 -242 172q8 0 -68 -4q-45 -2 -61 4v92q23 -2 53 -2q254 0 254 148q0 70 -69 110q-57 33 -131 33q-51 0 -119 -21q-76 -20 -107 -53q20 123 90 160q45 27 158 27q119 0 213 -48q123 -61 123 -182 q0 -152 -186 -194q278 -74 278 -252q0 -166 -178 -252q-127 -59 -272 -60q-143 0 -179 15q-74 31 -104 166z" />
<glyph unicode="&#xb4;" horiz-adv-x="794" d="M168 1176l498 370q25 -29 67.5 -88t67.5 -86z" />
<glyph unicode="&#xb6;" horiz-adv-x="1257" d="M74 1135q0 195 133 315q127 113 311 113h682q-18 -16 -51 -58q-41 -47 -41 -65v-1585q0 -18 32.5 -62.5t59.5 -60.5h-282v1657h-218v-1655h-280q12 4 52 53t40 70v833q-207 27 -328 158q-111 121 -110 287z" />
<glyph unicode="&#xb7;" horiz-adv-x="507" d="M186 567q0 61 52 103q45 37 98 37q66 0 106.5 -46.5t40.5 -101.5q0 -66 -46 -107.5t-101 -41.5q-76 0 -117 57q-33 47 -33 100z" />
<glyph unicode="&#xb8;" horiz-adv-x="573" d="M158 -358q37 49 69 98q63 -76 160 -76q88 0 88 70q0 61 -76 61q-8 0 -21 -5t-24 -5q-16 0 -45.5 38t-29.5 56q0 14 49 119h108q-2 -6 -24 -53q-16 -35 -17 -58q0 -10 2 -18q16 10 54 10q74 0 118.5 -39.5t44.5 -105.5q0 -88 -79 -135q-59 -37 -136 -37q-100 0 -241 80z " />
<glyph unicode="&#xb9;" horiz-adv-x="589" d="M150 1389q82 25 169 86q106 74 164 163v-872q0 -23 21 -59q24 -44 55 -62h-326q23 12 58 50t35 55v639h-176z" />
<glyph unicode="&#xba;" horiz-adv-x="804" d="M92 1266q0 154 121 250q106 86 238 86q150 0 245 -95.5t95 -236.5q0 -143 -119 -242q-109 -88 -234 -88q-150 0 -250 102q-96 96 -96 224zM94 680v100h697v-100h-697zM233 1290q0 -88 46 -162q59 -94 167 -94q80 0 142.5 60.5t62.5 162.5q0 92 -49 164q-57 86 -164 86 q-92 0 -148.5 -64.5t-56.5 -152.5z" />
<glyph unicode="&#xbb;" horiz-adv-x="784" d="M160 215l137 381l-137 371h69l254 -371l-254 -381h-69zM467 215l137 381l-137 371h70l254 -371l-254 -381h-70z" />
<glyph unicode="&#xbc;" horiz-adv-x="1867" d="M150 1378q84 29 176 92q109 76 155 158v-880q2 -25 23 -60q24 -43 55 -61h-326q25 12 54 41q39 39 39 73v637h-176zM494 2l774 1561h137l-764 -1561h-147zM1024 195l477 745h211v-627q6 -6 43 -6q82 0 152 55q-27 -55 -52 -110q-37 -70 -88 -70q-23 0 -49 15 q-6 -12 -6 -54q0 -94 66 -139h-297q74 39 73 76v115h-530zM1229 309h323v518z" />
<glyph unicode="&#xbd;" horiz-adv-x="1910" d="M150 1378q84 29 176 92q109 76 155 158v-880q2 -25 23 -60q24 -43 55 -61h-326q29 14 61 48t32 66v637h-176zM494 2l766 1561h135l-754 -1561h-147zM1163 2q125 160 250 322q244 326 244 389q0 68 -60 104q-51 31 -122 31q-74 0 -148 -33q-53 -25 -106 -51 q51 133 108 168q43 27 174 26q106 0 205 -43q135 -59 135 -176q0 -70 -174 -309q-119 -156 -235 -311q94 -27 237 -27q150 1 291 64q-29 -53 -84 -154h-715z" />
<glyph unicode="&#xbe;" horiz-adv-x="1912" d="M39 780q123 -74 272 -73q98 0 176 45q98 57 99 166q0 90 -80 135q-63 37 -162 37q8 0 -68 -5q-45 -4 -61 5v92q307 -18 307 145q0 70 -67 111q-57 33 -133 32q-90 0 -228 -63q35 125 88 156q37 20 162 20q123 0 213 -43q123 -59 123 -180q0 -86 -49 -131 q-39 -39 -137 -70q147 -49 202 -90q76 -58 76 -158q0 -170 -178 -256q-127 -59 -277 -59q-141 0 -172 14q-61 31 -106 170zM541 2l774 1561h137l-774 -1561h-137zM1071 195l477 745h211v-627q6 -6 41 -6q82 0 154 55q-27 -55 -51 -110q-37 -70 -88 -70q-23 0 -50 15 q-6 -12 -6 -54q0 -94 66 -139h-299q23 6 49.5 28.5t26.5 39.5v123h-531zM1284 309h315v518z" />
<glyph unicode="&#xbf;" horiz-adv-x="970" d="M158 -92q0 160 123 303q109 113 219 225q117 133 106 279q-4 0 182 20q12 -35 13 -92q0 -127 -105 -248q-96 -96 -192 -194q-104 -117 -105 -238q0 -150 111 -235q92 -72 221 -72t309 92q-76 -162 -150.5 -211t-213.5 -49q-190 0 -338 96q-180 117 -180 324zM530 977 q0 66 50 110q43 39 100 39q66 0 107.5 -46t41.5 -103q0 -66 -47 -108t-102 -42q-66 0 -111 54q-39 45 -39 96z" />
<glyph unicode="&#xc0;" d="M18 4q33 18 99.5 103.5t83.5 132.5q51 133 299 739q180 438 180 487q0 53 -76 97h381q84 -188 258 -643q170 -438 248 -609q129 -276 213 -307h-485q84 43 84 94q0 18 -66 193.5t-119 296.5h-590q-166 -469 -166 -475q0 -68 84 -109h-428zM541 1827q23 29 66.5 88 t66.5 86l497 -369zM588 766h463l-228 594z" />
<glyph unicode="&#xc1;" d="M18 4q33 18 99.5 103.5t83.5 132.5q51 133 299 739q180 438 180 487q0 53 -76 97h381q84 -188 258 -643q170 -438 248 -609q129 -276 213 -307h-485q84 43 84 94q0 18 -66 193.5t-119 296.5h-590q-166 -469 -166 -475q0 -68 84 -109h-428zM549 1640l500 371 q23 -29 66.5 -87t66.5 -87zM588 766h463l-228 594z" />
<glyph unicode="&#xc2;" d="M18 4q33 18 99.5 103.5t83.5 132.5q51 133 299 739q180 438 180 487q0 53 -76 97h381q84 -188 258 -643q170 -438 248 -609q129 -276 213 -307h-485q84 43 84 94q0 18 -66 193.5t-119 296.5h-590q-166 -469 -166 -475q0 -68 84 -109h-428zM475 1642l377 369l385 -371 q-86 0 -180 39q-63 25 -135 70q-61 39 -66 39l-167 -79t-214 -67zM588 766h463l-228 594z" />
<glyph unicode="&#xc3;" d="M18 4q33 18 99.5 103.5t83.5 132.5q51 133 299 739q180 438 180 487q0 53 -76 97h381q84 -188 258 -643q170 -438 248 -609q129 -276 213 -307h-485q84 43 84 94q0 18 -66 193.5t-119 296.5h-590q-166 -469 -166 -475q0 -68 84 -109h-428zM449 1704q45 147 92 192 q41 39 139 39q10 0 169 -18.5t171 -18.5q174 0 254 84q-47 -119 -74 -161q-68 -113 -147 -113q-16 0 -35 4l-400 57q-57 -10 -83 -18q-49 -14 -86 -47zM588 766h463l-228 594z" />
<glyph unicode="&#xc4;" d="M18 4q33 18 99.5 103.5t83.5 132.5q51 133 299 739q180 438 180 487q0 53 -76 97h381q84 -188 258 -643q170 -438 248 -609q129 -276 213 -307h-485q84 43 84 94q0 18 -66 193.5t-119 296.5h-590q-166 -469 -166 -475q0 -68 84 -109h-428zM494 1851q0 68 47 109t102 41 q70 0 109 -57q30 -44 30 -93q0 -57 -43 -102t-102 -45q-61 0 -102 47t-41 100zM588 766h463l-228 594zM922 1851q0 68 49 111q43 39 100 39q70 0 109 -57q30 -44 30 -93q0 -66 -45 -106.5t-100 -40.5q-59 0 -101 47t-42 100z" />
<glyph unicode="&#xc5;" d="M18 4q33 18 99.5 103.5t83.5 132.5q51 133 299 739q180 438 180 487q0 53 -76 97h381q84 -188 258 -643q170 -438 248 -609q129 -276 213 -307h-485q84 43 84 94q0 18 -66 193.5t-119 296.5h-590q-166 -469 -166 -475q0 -68 84 -109h-428zM588 766h463l-228 594z M633 1880q0 92 72 156q63 59 143 59q100 0 161.5 -64.5t61.5 -150.5q0 -102 -65.5 -162.5t-157.5 -60.5q-104 0 -166 80q-49 66 -49 143zM717 1880q0 -51 31 -90q37 -49 100 -49q49 0 90 31q49 37 49 100q0 51 -31 90q-39 49 -108 49q-53 0 -92 -40t-39 -91z" />
<glyph unicode="&#xc6;" horiz-adv-x="2119" d="M-55 2q240 219 706 846q438 586 439 637q0 35 -56 80h928v-271q-78 72 -166 88q-29 4 -149 4q-158 0 -215 -24v-414q180 -14 391 0v-239q-18 23 -60.5 43t-64.5 22h-264v-571q211 -35 348 -35q219 0 399 139q-35 -102 -106 -305h-985q31 20 63 70q39 57 39 102v598h-385 l-453 -672q-4 -18 74 -98h-483zM932 942h258v371z" />
<glyph unicode="&#xc7;" horiz-adv-x="1335" d="M47 786q0 373 244 598q236 217 598 218q127 0 422 -58l8 -278q-66 57 -202 98t-238 41q-260 0 -416 -174q-145 -164 -146 -412q0 -266 164 -459q176 -203 445 -202q250 -1 506 149q-43 -213 -172 -289q-98 -55 -310 -55q-10 0 -76.5 4t-76.5 4q-51 0 -62 -24 q-2 -4 -12 -78q18 10 55 10q72 0 117 -40t45 -105q0 -88 -80 -135q-59 -37 -133 -37q-78 0 -152 30q0 2 -92 48q12 20 82 100q0 -27 66 -53q57 -23 86 -23q84 0 84 70q0 61 -74 61q-12 0 -21.5 -5t-21.5 -5q-16 0 -48 38t-32 56q0 10 47 105q-313 80 -473 323 q-131 205 -131 479z" />
<glyph unicode="&#xc8;" horiz-adv-x="1122" d="M102 2q33 20 66 70q37 57 37 102v1217q0 88 -103 174h873v-262q-78 94 -295 94q-10 0 -111 -4q-61 -4 -125 2v-443q201 -20 400 0v-243q-18 23 -60.5 43t-62.5 22h-272v-561q209 -37 348 -37q129 0 206.5 27.5t186.5 111.5l-103 -313h-985zM299 1827q23 29 67 88t66 86 l498 -369z" />
<glyph unicode="&#xc9;" horiz-adv-x="1118" d="M102 2q33 20 66 70q37 57 37 102v1217q0 88 -103 174h873v-262q-78 94 -295 94q-10 0 -102 -4q-57 -4 -134 2v-443q201 -20 400 0v-243q-18 23 -60.5 43t-62.5 22h-272v-561q209 -37 348 -37q129 0 206.5 27.5t186.5 111.5l-103 -313h-985zM307 1640l498 371 q25 -29 68.5 -87t66.5 -87z" />
<glyph unicode="&#xca;" horiz-adv-x="1118" d="M102 2q33 20 66 70q37 57 37 102v1217q0 88 -103 174h873v-262q-78 94 -295 94q-256 0 -236 -2v-443q201 -20 400 0v-243q-18 23 -60.5 43t-62.5 22h-272v-561q209 -37 348 -37q129 0 206.5 27.5t186.5 111.5l-103 -313h-985zM233 1642l377 369l385 -371q-86 0 -180 39 q-63 25 -135 70q-61 39 -66 39l-166 -79q-167 -79 -215 -67z" />
<glyph unicode="&#xcb;" horiz-adv-x="1118" d="M102 2q33 20 66 70q37 57 37 102v1217q0 88 -103 174h873v-262q-78 94 -295 94q-10 0 -113 -4q-63 -4 -123 2v-443q201 -20 400 0v-243q-18 23 -60.5 43t-62.5 22h-272v-561q209 -37 348 -37q129 0 206.5 27.5t186.5 111.5l-103 -313h-985zM252 1851q0 68 49 111 q43 39 98 39q70 0 111 -57q31 -44 31 -93q0 -57 -43 -102t-103 -45q-61 0 -102 47t-41 100zM688 1851q0 68 47 109t103 41q70 0 110 -57q29 -44 29 -93q0 -63 -46 -105t-97 -42q-61 0 -103.5 47t-42.5 100z" />
<glyph unicode="&#xcc;" horiz-adv-x="593" d="M-8 1827q23 29 66.5 88t66.5 86l498 -369zM94 4q31 18 64 68q37 57 37 102v1217q0 51 -39 106q-33 47 -62 64h447q-35 -20 -66 -64q-37 -53 -37 -104v-1221q0 -47 33 -95t68 -73h-445z" />
<glyph unicode="&#xcd;" horiz-adv-x="600" d="M0 1640l498 371q25 -29 68.5 -87t66.5 -87zM94 4q31 18 64 68q37 57 37 102v1217q0 51 -39 106q-33 47 -62 64h447q-25 -8 -64 -77t-39 -91v-1221q0 -29 35 -87t66 -81h-445z" />
<glyph unicode="&#xce;" horiz-adv-x="643" d="M-74 1642l377 369l385 -371q-86 0 -180 39q-63 25 -135 70q-61 39 -66 39l-167 -79t-214 -67zM94 4q31 18 64 68q37 57 37 102v1217q0 51 -39 106q-33 47 -62 64h447q-25 -8 -64 -77t-39 -91v-1221q0 -29 35 -87t66 -81h-445z" />
<glyph unicode="&#xcf;" horiz-adv-x="624" d="M-55 1851q0 68 49 111q43 39 98 39q72 0 111 -57q30 -44 30 -93q0 -57 -43 -102t-102 -45q-61 0 -102 47t-41 100zM94 4q31 18 64 68q37 57 37 102v1217q0 51 -39 106q-33 47 -62 64h447q-25 -8 -64 -77t-39 -91v-1221q0 -29 35 -87t66 -81h-445zM381 1851q0 68 47 109 t102 41q70 0 111 -62q29 -45 29 -88q0 -66 -44 -106.5t-100 -40.5q-61 0 -103 47t-42 100z" />
<glyph unicode="&#xd0;" horiz-adv-x="1548" d="M84 2q29 23 65.5 81t36.5 91v592q-20 6 -100 8v146h100v489q0 86 -102 154h674q340 0 563 -216t223 -550q0 -326 -233.5 -560.5t-552.5 -234.5h-674zM430 178h98q66 -2 72 -2q281 0 459 129q217 158 217 467q0 295 -162 454.5t-467 159.5h-102q-51 -2 -115 -2v-466h483 v-142h-483v-598z" />
<glyph unicode="&#xd1;" horiz-adv-x="1685" d="M74 4q37 16 80 70q51 66 51 119v1179q0 78 -121 191h342l944 -1201v1010q-2 78 -123 189h410q-37 -37 -76 -74q-45 -51 -45 -113v-1448q-88 -10 -303 228q-131 147 -428 532q-301 393 -426 535l-6 -1012q2 -125 121 -205h-420zM449 1704q45 150 92 192q41 39 139 39 q10 0 169 -18.5t171 -18.5q156 0 254 84q-47 -117 -74 -161q-68 -113 -147 -113q-16 0 -35 4l-400 57q-57 -10 -83 -18q-49 -14 -86 -47z" />
<glyph unicode="&#xd2;" horiz-adv-x="1839" d="M55 786q0 362 283 598q258 217 598 218q350 0 598 -218q262 -229 262 -587q0 -367 -272 -609q-254 -225 -602 -225q-360 0 -613.5 236.5t-253.5 586.5zM326 809q0 -254 153 -453q176 -225 457 -225q264 0 430 178q160 175 160 441q0 260 -148 458q-172 225 -452 226 q-272 0 -441 -181q-160 -172 -159 -444zM606 1827q23 29 67 88t66 86l498 -369z" />
<glyph unicode="&#xd3;" horiz-adv-x="1841" d="M55 786q0 362 283 598q258 217 598 218q350 0 598 -218q262 -229 262 -587q0 -367 -272 -609q-254 -225 -602 -225q-360 0 -613.5 236.5t-253.5 586.5zM326 809q0 -254 153 -453q176 -225 457 -225q264 0 430 178q160 175 160 441q0 260 -148 458q-172 225 -452 226 q-272 0 -441 -181q-160 -172 -159 -444zM614 1640l498 371q25 -29 68.5 -87t66.5 -87z" />
<glyph unicode="&#xd4;" horiz-adv-x="1841" d="M55 786q0 362 283 598q258 217 598 218q350 0 598 -218q262 -229 262 -587q0 -367 -272 -609q-254 -225 -602 -225q-360 0 -613.5 236.5t-253.5 586.5zM326 809q0 -254 153 -453q176 -225 457 -225q264 0 430 178q160 175 160 441q0 260 -148 458q-172 225 -452 226 q-272 0 -441 -181q-160 -172 -159 -444zM549 1642l377 369l387 -371q-86 0 -183 39q-63 25 -135 70q-61 39 -65 39q2 0 -170 -82q-164 -76 -211 -64z" />
<glyph unicode="&#xd5;" horiz-adv-x="1841" d="M55 786q0 362 283 598q258 217 598 218q350 0 598 -218q262 -229 262 -587q0 -367 -272 -609q-254 -225 -602 -225q-360 0 -613.5 236.5t-253.5 586.5zM326 809q0 -254 153 -453q176 -225 457 -225q264 0 430 178q160 175 160 441q0 260 -148 458q-172 225 -452 226 q-272 0 -441 -181q-160 -172 -159 -444zM524 1704q43 147 90 192q41 39 140 39q12 0 169.5 -18.5t170.5 -18.5q156 0 254 84q-47 -117 -74 -161q-68 -113 -146 -113q-18 0 -34 4l-400 57q-59 -10 -86 -18q-47 -14 -84 -47z" />
<glyph unicode="&#xd6;" horiz-adv-x="1841" d="M55 786q0 362 283 598q258 217 598 218q350 0 598 -218q262 -229 262 -587q0 -367 -272 -609q-254 -225 -602 -225q-360 0 -613.5 236.5t-253.5 586.5zM326 809q0 -254 153 -453q176 -225 457 -225q264 0 430 178q160 175 160 441q0 260 -148 458q-172 225 -452 226 q-272 0 -441 -181q-160 -172 -159 -444zM559 1851q0 68 49 111q43 39 99 39q72 0 110 -55q31 -46 31 -95q0 -61 -45 -104t-101 -43q-61 0 -104 49q-39 43 -39 98zM995 1851q0 68 47.5 109t102.5 41q72 0 110 -55q29 -46 29 -95q0 -66 -44 -106.5t-99 -40.5q-61 0 -103.5 47 t-42.5 100z" />
<glyph unicode="&#xd7;" horiz-adv-x="1269" d="M158 98l456 455l-456 457l98 98l457 -457l454 457l99 -98l-457 -457l457 -455l-99 -98l-454 457l-457 -457z" />
<glyph unicode="&#xd8;" horiz-adv-x="1818" d="M55 772q0 362 264 602q248 227 584 228q10 0 75.5 -5.5t78.5 -5.5q43 0 69 80q43 131 50 144h155q-29 -74 -84 -246q272 -90 420 -328q129 -204 129 -444q0 -338 -262 -590q-256 -244 -576 -244q-53 0 -243 19q-29 -61 -74 -203h-156l74 233q-252 115 -389 357 q-115 199 -115 403zM326 823q0 -166 69 -325q82 -193 236 -283l401 1206q-47 12 -110 13q-268 0 -432 -175.5t-164 -435.5zM774 133q31 0 88 -2h74q276 0 440 188q150 175 150 439q0 170 -76 332q-94 195 -264 286z" />
<glyph unicode="&#xd9;" horiz-adv-x="1568" d="M55 1561h447q-35 -20 -64 -64q-39 -53 -39 -104v-895q0 -164 108.5 -265.5t270.5 -101.5q111 0 236 66q160 84 160 219v975q0 49 -39 102q-31 45 -64 68h447q-37 0 -72 -72q-31 -63 -31 -107v-1210q0 -47 34 -96t77 -74h-361q14 80 2 148q-55 -84 -204 -140 q-133 -47 -256 -47q-190 0 -353 105q-197 129 -196 348v983q0 37 -35 95t-68 67zM494 1827q23 29 66.5 88t68.5 86l497 -369z" />
<glyph unicode="&#xda;" horiz-adv-x="1568" d="M55 1561h447q-35 -20 -64 -64q-39 -53 -39 -104v-895q0 -164 108.5 -265.5t270.5 -101.5q111 0 236 66q160 84 160 219v975q0 49 -39 102q-31 45 -64 68h447q-37 0 -72 -72q-31 -63 -31 -107v-1210q0 -47 34 -96t77 -74h-361q14 80 2 148q-55 -84 -204 -140 q-133 -47 -256 -47q-190 0 -353 105q-197 129 -196 348v983q0 37 -35 95t-68 67zM504 1640l497 371q23 -29 67 -87t67 -87z" />
<glyph unicode="&#xdb;" horiz-adv-x="1568" d="M55 1561h447q-35 -20 -64 -64q-39 -53 -39 -104v-895q0 -164 108.5 -265.5t270.5 -101.5q111 0 236 66q160 84 160 219v975q0 49 -39 102q-31 45 -64 68h447q-37 0 -72 -72q-31 -63 -31 -107v-1210q0 -47 34 -96t77 -74h-361q14 80 2 148q-55 -84 -204 -140 q-133 -47 -256 -47q-190 0 -353 105q-197 129 -196 348v983q0 37 -35 95t-68 67zM428 1642l377 369l387 -371q-88 0 -182 39q-63 25 -136 70q-61 39 -65 39q2 0 -170 -82q-164 -76 -211 -64z" />
<glyph unicode="&#xdc;" horiz-adv-x="1568" d="M55 1561h447q-35 -20 -64 -64q-39 -53 -39 -104v-895q0 -164 108.5 -265.5t270.5 -101.5q111 0 236 66q160 84 160 219v975q0 49 -39 102q-31 45 -64 68h447q-37 0 -72 -72q-31 -63 -31 -107v-1210q0 -47 34 -96t77 -74h-361q14 80 2 148q-55 -84 -204 -140 q-133 -47 -256 -47q-190 0 -353 105q-197 129 -196 348v983q0 37 -35 95t-68 67zM438 1851q0 68 49 111q43 39 99 39q72 0 110 -55q31 -46 31 -95q0 -61 -45 -104t-100 -43q-61 0 -102.5 47t-41.5 100zM874 1851q0 68 47.5 109t102.5 41q70 0 109 -57q30 -46 30 -93 q0 -66 -44 -106.5t-99 -40.5q-61 0 -103.5 47t-42.5 100z" />
<glyph unicode="&#xdd;" horiz-adv-x="1390" d="M-66 1561h256q74 2 287 -330q106 -178 215 -357q86 125 172 252q168 254 168 312q0 61 -82 123h408q-10 -18 -293 -422q-190 -274 -281 -457q-18 -35 -18 -94q0 -41 8 -96l8 -54q0 -16 -3 -63t-3 -76q0 -213 127 -295h-465q82 47 99 160q4 29 4 260l6 58q6 59 6 102 q0 68 -16 98q-96 182 -287 481q-254 401 -316 398zM336 1640l498 371q23 -29 66.5 -87t68.5 -87z" />
<glyph unicode="&#xde;" horiz-adv-x="1191" d="M113 4q31 18 63 68q39 57 39 102v1217q0 51 -41 106q-33 47 -61 64h446q-35 -20 -65 -64q-37 -53 -39 -104v-156h311q162 0 303 -113q160 -127 160 -309q0 -211 -178 -342q-154 -111 -338 -111q-49 0 -183 44q186 8 307 112.5t121 253.5q0 289 -344 289q-82 0 -159 -27 v-854q2 -27 39 -90q43 -72 84 -86h-465z" />
<glyph unicode="&#xdf;" horiz-adv-x="1222" d="M74 4q12 2 53 52t41 71v805q-41 14 -84 10q25 35 51.5 73t28.5 70q27 281 132 399t318 118q152 0 269 -74q141 -90 141 -248q0 -94 -45 -154q-29 -37 -107 -94q-86 -59 -127 -104q287 -170 375 -262q109 -115 109 -293q0 -184 -120 -293t-300 -109q-145 0 -207 45 q-86 61 -106 244q55 -53 137 -87t145 -34q96 0 171 65.5t75 172.5q0 127 -131 233q-51 41 -242 148q-129 74 -129 121q0 59 72 122q68 55 135 111q72 74 72 158q0 88 -64 135q-51 37 -127 37q-104 0 -166 -76q-53 -66 -53 -160v-1081q0 -20 25.5 -62.5t58.5 -58.5h-401z" />
<glyph unicode="&#xe0;" horiz-adv-x="1122" d="M37 326q0 193 184 266q6 2 340 74q184 39 184 149q0 84 -88 125q-61 29 -141 29q-125 0 -301 -82q104 178 137 205q43 35 183 34q137 0 260 -55q174 -80 174 -237v-551q-1 -136 194 -156q-12 -14 -94 -154h-49q-86 0 -174 58q-98 68 -101 159l-8 406q-76 -45 -212 -73.5 t-173 -51.5q-74 -43 -73 -145q0 -106 92 -158q66 -37 159 -37q33 0 168 25l-102 -140q-47 -45 -150 -45q-170 0 -286 97q-123 100 -123 258zM252 1354q23 27 66.5 86t66.5 86l500 -369z" />
<glyph unicode="&#xe1;" horiz-adv-x="1140" d="M37 326q0 193 184 266q6 2 340 74q184 39 184 149q0 84 -88 125q-61 29 -141 29q-125 0 -301 -82q104 178 137 205q43 35 183 34q137 0 260 -55q174 -80 174 -237v-551q-1 -136 194 -156q-12 -14 -94 -154h-49q-86 0 -174 58q-98 68 -101 159l-8 406q-76 -45 -212 -73.5 t-173 -51.5q-74 -43 -73 -145q0 -106 92 -158q66 -37 159 -37q33 0 168 25l-102 -140q-47 -45 -150 -45q-170 0 -286 97q-123 100 -123 258zM262 1176l498 368q23 -27 66.5 -86t66.5 -86z" />
<glyph unicode="&#xe2;" horiz-adv-x="1144" d="M37 326q0 193 184 266q6 2 340 74q184 39 184 149q0 84 -88 125q-61 29 -141 29q-125 0 -301 -82q104 178 137 205q43 35 183 34q137 0 260 -55q174 -80 174 -237v-551q-1 -136 194 -156q-12 -14 -94 -154h-49q-86 0 -174 58q-98 68 -101 159l-8 406q-76 -45 -212 -73.5 t-173 -51.5q-74 -43 -73 -145q0 -106 92 -158q66 -37 159 -37q33 0 168 25l-102 -140q-47 -45 -150 -45q-170 0 -286 97q-123 100 -123 258zM176 1176l387 360l385 -360q-111 0 -251 68.5t-130 68.5q6 0 -146.5 -71t-244.5 -66z" />
<glyph unicode="&#xe3;" horiz-adv-x="1118" d="M37 326q0 193 184 266q6 2 340 74q184 39 184 149q0 84 -88 125q-61 29 -141 29q-125 0 -301 -82q104 178 137 205q43 35 183 34q137 0 260 -55q174 -80 174 -237v-551q-1 -136 194 -156q-12 -14 -94 -154h-49q-86 0 -174 58q-98 68 -101 159l-8 406q-76 -45 -212 -73.5 t-173 -51.5q-74 -43 -73 -145q0 -106 92 -158q66 -37 159 -37q33 0 168 25l-102 -140q-47 -45 -150 -45q-170 0 -286 97q-123 100 -123 258zM170 1229q45 150 89 191.5t140 41.5q12 0 171 -19.5t169 -19.5q174 0 254 84q-47 -117 -71 -159q-70 -115 -148 -115q-16 0 -35 6 l-399 55q-57 -8 -86 -18q-47 -14 -84 -47z" />
<glyph unicode="&#xe4;" horiz-adv-x="1144" d="M37 326q0 193 184 266q6 2 340 74q184 39 184 149q0 84 -88 125q-61 29 -141 29q-125 0 -301 -82q104 178 137 205q43 35 183 34q137 0 260 -55q174 -80 174 -237v-551q-1 -136 194 -156q-12 -14 -94 -154h-49q-86 0 -174 58q-98 68 -101 159l-8 406q-76 -45 -212 -73.5 t-173 -51.5q-74 -43 -73 -145q0 -106 92 -158q66 -37 159 -37q33 0 168 25l-102 -140q-47 -45 -150 -45q-170 0 -286 97q-123 100 -123 258zM205 1386q0 66 49 111q45 39 100 39q70 0 109 -57q31 -44 31 -93q0 -63 -44 -106t-102 -43q-61 0 -102 47t-41 102zM643 1386 q0 66 49 111q43 39 99 39q72 0 110 -57q29 -44 29 -93q0 -66 -44 -107.5t-100 -41.5q-61 0 -102 47t-41 102z" />
<glyph unicode="&#xe5;" horiz-adv-x="1140" d="M37 326q0 193 184 266q6 2 340 74q184 39 184 149q0 84 -88 125q-61 29 -141 29q-125 0 -301 -82q104 178 137 205q43 35 183 34q137 0 260 -55q174 -80 174 -237v-551q-1 -136 194 -156q-12 -14 -94 -154h-49q-86 0 -174 58q-98 68 -101 159l-8 406q-76 -45 -212 -73.5 t-173 -51.5q-74 -43 -73 -145q0 -106 92 -158q66 -37 159 -37q33 0 168 25l-102 -140q-47 -45 -150 -45q-170 0 -286 97q-123 100 -123 258zM344 1405q0 94 68 158q63 57 147 57q100 0 161.5 -64.5t61.5 -150.5q0 -104 -80 -164q-66 -49 -143 -49q-94 0 -154.5 65.5 t-60.5 147.5zM428 1405q0 -43 27 -80q37 -49 104 -49q51 0 95 33t44 96q0 55 -40 93t-95 38q-61 0 -98 -36t-37 -95z" />
<glyph unicode="&#xe6;" horiz-adv-x="1835" d="M37 322q0 182 192 260q18 8 361 84q193 43 192 143q0 88 -104 131q-70 29 -148 29q-119 0 -297 -82q90 150 142 190q66 49 198 49q248 0 363 -157q199 158 395 157q193 0 352 -122q178 -137 179 -347v-69h-840q-8 -8 -8 -29q0 -197 147 -319q131 -109 301 -109 q231 0 393 129q-55 -186 -190 -250q-82 -39 -242 -39q-274 0 -446 133q-205 158 -211 474q-133 -35 -264 -72q-223 -74 -223 -180q0 -104 102 -158q72 -37 149 -37q133 0 269 100q-59 -156 -126 -208t-202 -52q-156 0 -283 84q-152 98 -151 267zM1034 719h576 q-53 250 -279 250q-111 0 -193.5 -69t-103.5 -181z" />
<glyph unicode="&#xe7;" horiz-adv-x="1081" d="M55 530q0 291 217 455q188 141 467 141q113 0 246 -30v-240q-141 113 -297 113q-182 0 -291 -119q-100 -111 -100 -272q0 -199 156 -328q143 -119 333 -119q197 0 357 119q-72 -190 -180 -244q-68 -35 -246 -35q-68 0 -94 4q-14 2 -29 5q-29 -88 -29 -111q18 10 53 10 q72 0 118 -40t46 -105q0 -88 -80 -135q-61 -37 -135 -37q-41 0 -125 24q-94 27 -116 56q45 59 69 98q66 -76 158 -76q90 0 90 70q0 61 -76 61q-10 0 -23.5 -5t-21.5 -5q-18 0 -47 38t-29 56q0 12 48 115q-223 76 -338 229q-100 135 -101 307z" />
<glyph unicode="&#xe8;" horiz-adv-x="1148" d="M55 559q0 256 181 416q168 152 411 151q180 0 346 -112q197 -131 197 -338v-88h-866q-6 -6 -7 -43q0 -201 164 -318q139 -96 316 -96q203 0 374 111q-45 -180 -188 -238q-78 -33 -238 -33q-268 0 -464 144q-225 164 -226 444zM299 1354q23 27 67 86t66 86l498 -369z M328 719h610q-18 133 -123 199q-78 51 -178 51q-119 0 -204 -67.5t-105 -182.5z" />
<glyph unicode="&#xe9;" horiz-adv-x="1150" d="M55 559q0 256 181 416q168 152 411 151q180 0 346 -112q197 -131 197 -338v-88h-866q-6 -6 -7 -43q0 -201 164 -318q139 -96 316 -96q203 0 374 111q-45 -180 -188 -238q-78 -33 -238 -33q-268 0 -464 144q-225 164 -226 444zM307 1176l498 368q25 -27 68.5 -86t66.5 -86 zM328 719h610q-18 133 -123 199q-78 51 -178 51q-119 0 -204 -67.5t-105 -182.5z" />
<glyph unicode="&#xea;" horiz-adv-x="1155" d="M55 559q0 256 181 416q168 152 411 151q180 0 346 -112q197 -131 197 -338v-88h-866q-6 -6 -7 -43q0 -201 164 -318q139 -96 316 -96q203 0 374 111q-45 -180 -188 -238q-78 -33 -238 -33q-268 0 -464 144q-225 164 -226 444zM223 1176l387 360l385 -360 q-111 0 -251 68.5t-130 68.5q6 0 -146.5 -71t-244.5 -66zM328 719h610q-18 133 -123 199q-78 51 -178 51q-119 0 -204 -67.5t-105 -182.5z" />
<glyph unicode="&#xeb;" horiz-adv-x="1155" d="M55 559q0 256 181 416q168 152 411 151q180 0 346 -112q197 -131 197 -338v-88h-866q-6 -6 -7 -43q0 -201 164 -318q139 -96 316 -96q203 0 374 111q-45 -180 -188 -238q-78 -33 -238 -33q-268 0 -464 144q-225 164 -226 444zM252 1386q0 66 49 111q43 39 98 39 q72 0 111 -57q31 -44 31 -93q0 -63 -45 -106t-101 -43q-61 0 -102 47t-41 102zM328 719h610q-18 133 -123 199q-78 51 -178 51q-119 0 -204 -67.5t-105 -182.5zM688 1386q0 66 49 111q45 39 101 39q72 0 110 -57q29 -44 29 -93q0 -66 -44 -107.5t-99 -41.5q-61 0 -103.5 47 t-42.5 102z" />
<glyph unicode="&#xec;" horiz-adv-x="555" d="M-37 1354q23 27 67 86t66 86l500 -369zM74 4q12 4 53 53t41 70v844q0 14 -38 63t-56 60q80 2 157 2q88 0 158 39v-992q2 -29 27 -73q30 -54 67 -66h-409z" />
<glyph unicode="&#xed;" horiz-adv-x="565" d="M-27 1176l498 368q23 -27 66.5 -86t66.5 -86zM74 4q12 4 53 53t41 70v844q0 12 -37 62t-57 61q80 2 157 2q88 0 158 39v-992q2 -29 27 -73q30 -54 67 -66h-409z" />
<glyph unicode="&#xee;" horiz-adv-x="632" d="M-102 1176l387 360l385 -360q-111 0 -252.5 68.5t-128.5 68.5q6 0 -146.5 -71t-244.5 -66zM74 4q12 4 53 53t41 70v844q0 12 -37 62t-57 61q80 2 157 2q88 0 158 39v-992q2 -29 27 -73q30 -54 67 -66h-409z" />
<glyph unicode="&#xef;" horiz-adv-x="638" d="M-84 1386q0 66 49 111q45 39 101 39q70 0 108 -57q31 -44 31 -93q0 -63 -44 -106t-100 -43q-63 0 -104 47t-41 102zM74 4q12 4 53 53t41 70v844q0 12 -37 62t-57 61q80 2 157 2q88 0 158 39v-992q2 -29 27 -73q30 -54 67 -66h-409zM354 1386q0 66 49 111q43 39 99 39 q72 0 110 -57q31 -44 31 -93q0 -66 -45 -107.5t-100 -41.5q-61 0 -102.5 47t-41.5 102z" />
<glyph unicode="&#xf0;" horiz-adv-x="1298" d="M55 541q0 213 133 387q150 199 379 198q106 0 179 -47t174 -188q-109 78 -258 78q-178 0 -277 -119q-88 -106 -88 -268q0 -178 92 -306q104 -145 287 -145q367 0 366 502q0 373 -331 643l-402 -150q-6 14 -57 119l344 129q-55 61 -180 105q-113 39 -215 41q27 39 106 65 q68 25 117 25q147 0 381 -158l309 111q20 -33 60 -97q-27 -27 -117 -57q-102 -37 -135 -55q362 -305 362 -717q0 -293 -170 -475q-174 -190 -463 -191q-242 0 -415 162q-180 166 -181 408z" />
<glyph unicode="&#xf1;" horiz-adv-x="1275" d="M66 4q12 4 52 53t40 70v836q0 33 -37 79q-29 37 -55 54h157q90 2 156 30q0 -131 8 -176q109 176 326 176q158 0 280 -86q141 -98 142 -262v-653q0 -18 33.5 -62.5t60.5 -58.5h-410q61 45 80 127q12 70 12 275q0 25 2 82t2 87q0 180 -47 269q-66 125 -235 125 q-152 0 -213 -99q-45 -74 -45 -219q0 -39 3 -109.5t3 -99.5q0 -238 14 -307q16 -86 80 -131h-409zM236 1229q45 150 89 191.5t140 41.5q12 0 170 -19.5t170 -19.5q174 0 254 84q-47 -117 -74 -159q-68 -115 -145 -115q-18 0 -35 6l-399 55q-59 -8 -87 -18q-47 -14 -83 -47z " />
<glyph unicode="&#xf2;" horiz-adv-x="1261" d="M55 541q0 268 199 434q180 152 434 151q244 0 416 -169t172 -398q0 -264 -199 -432q-180 -156 -422 -156q-246 0 -419 162q-180 164 -181 408zM297 582q0 -162 84 -291q104 -160 289 -160q164 0 268 121q94 112 94 264q0 176 -84 301q-104 152 -293 152q-168 0 -268 -125 q-90 -109 -90 -262zM344 1354q25 27 68 86t67 86l498 -369z" />
<glyph unicode="&#xf3;" horiz-adv-x="1263" d="M55 541q0 268 199 434q180 152 434 151q244 0 416 -169t172 -398q0 -264 -199 -432q-180 -156 -422 -156q-246 0 -419 162q-180 164 -181 408zM297 582q0 -162 84 -291q104 -160 289 -160q164 0 268 121q94 112 94 264q0 176 -84 301q-104 152 -293 152q-168 0 -268 -125 q-90 -109 -90 -262zM354 1176l498 368q25 -27 67.5 -86t67.5 -86z" />
<glyph unicode="&#xf4;" horiz-adv-x="1269" d="M55 541q0 268 199 434q180 152 434 151q244 0 416 -169t172 -398q0 -264 -199 -432q-180 -156 -422 -156q-246 0 -419 162q-180 164 -181 408zM279 1176l387 360l385 -360q-111 0 -251.5 68.5t-129.5 68.5q6 0 -146.5 -71t-244.5 -66zM297 582q0 -162 84 -291 q104 -160 289 -160q164 0 268 121q94 112 94 264q0 176 -84 301q-104 152 -293 152q-168 0 -268 -125q-90 -109 -90 -262z" />
<glyph unicode="&#xf5;" horiz-adv-x="1269" d="M55 541q0 268 199 434q180 152 434 151q244 0 416 -169t172 -398q0 -264 -199 -432q-180 -156 -422 -156q-246 0 -419 162q-180 164 -181 408zM262 1229q45 150 92 192q41 41 140 41q12 0 169.5 -19.5t170.5 -19.5q173 0 253 84q-47 -117 -73 -159q-68 -115 -148 -115 q-16 0 -35 6l-399 55q-57 -8 -84 -18q-49 -14 -86 -47zM297 582q0 -162 84 -291q104 -160 289 -160q164 0 268 121q94 112 94 264q0 176 -84 301q-104 152 -293 152q-168 0 -268 -125q-90 -109 -90 -262z" />
<glyph unicode="&#xf6;" horiz-adv-x="1269" d="M55 541q0 268 199 434q180 152 434 151q244 0 416 -169t172 -398q0 -264 -199 -432q-180 -156 -422 -156q-246 0 -419 162q-180 164 -181 408zM297 582q0 -162 84 -291q104 -160 289 -160q164 0 268 121q94 112 94 264q0 176 -84 301q-104 152 -293 152q-168 0 -268 -125 q-90 -109 -90 -262zM297 1386q0 66 49 111q45 39 100 39q72 0 111 -57q29 -44 29 -93q0 -63 -44 -106t-100 -43q-61 0 -103 47t-42 102zM735 1386q0 66 49 111q43 39 101 39q70 0 108 -57q31 -46 31 -93q0 -66 -44 -107.5t-101 -41.5q-59 0 -101.5 47t-42.5 102z" />
<glyph unicode="&#xf7;" horiz-adv-x="1179" d="M150 496v127h1114v-127h-1114zM559 158q0 61 51 102q45 37 97 37q68 0 108.5 -46t40.5 -101q0 -66 -46 -108t-103 -42q-74 0 -115 57q-33 47 -33 101zM559 977q0 59 45 99t103 40q68 0 108.5 -46t40.5 -101q0 -66 -46 -108t-103 -42q-74 0 -115 58q-33 47 -33 100z" />
<glyph unicode="&#xf8;" horiz-adv-x="1261" d="M55 549q0 274 207 436q182 141 426 141q66 0 107 -10l82 195h127q-20 -49 -82 -215q176 -98 268 -250q86 -139 86 -293q0 -252 -180 -420q-170 -162 -408 -162q-10 0 -61.5 5.5t-63.5 5.5q-31 0 -74 -119q-23 -66 -45 -131h-137q59 150 94 288q-184 84 -272 242 q-74 129 -74 287zM297 567q0 -102 47 -209q51 -119 127 -153l264 751q-37 12 -84 13q-168 0 -264 -123q-90 -113 -90 -279zM588 141q35 -10 82 -10q166 0 268 123q94 114 94 272q0 109 -41 209q-49 111 -131 168z" />
<glyph unicode="&#xf9;" horiz-adv-x="1275" d="M66 1094q78 2 157 2q88 0 158 39v-695q0 -119 63 -194q70 -88 199 -88q274 0 275 383q0 39 -3.5 91t-3.5 62q0 334 -92 404h246q35 2 70 37v-1010q0 -18 33.5 -62.5t60.5 -60.5h-326q16 78 4 156q-109 -186 -329 -187q-190 0 -305 114t-115 294v592q0 14 -37 63t-55 60z M326 1354q25 27 67.5 86t67.5 86l497 -369z" />
<glyph unicode="&#xfa;" horiz-adv-x="1275" d="M66 1094q78 2 157 2q88 0 158 39v-695q0 -119 63 -194q70 -88 199 -88q274 0 275 383q0 39 -3.5 91t-3.5 62q0 334 -92 404h246q35 2 70 37v-1010q0 -18 33.5 -62.5t60.5 -60.5h-326q16 78 4 156q-109 -186 -329 -187q-190 0 -305 114t-115 294v592q0 14 -37 63t-55 60z M336 1176l498 368q23 -27 66.5 -86t68.5 -86z" />
<glyph unicode="&#xfb;" horiz-adv-x="1277" d="M66 1094q78 2 157 2q88 0 158 39v-695q0 -119 63 -194q70 -88 199 -88q274 0 275 383q0 39 -3.5 91t-3.5 62q0 334 -92 404h246q35 2 70 37v-1010q0 -18 33.5 -62.5t60.5 -60.5h-326q16 78 4 156q-109 -186 -329 -187q-190 0 -305 114t-115 294v592q0 14 -37 63t-55 60z M252 1176l385 360l387 -360q-111 0 -252 68.5t-129 68.5q4 0 -147.5 -71t-243.5 -66z" />
<glyph unicode="&#xfc;" horiz-adv-x="1275" d="M66 1094q78 2 157 2q88 0 158 39v-695q0 -119 63 -194q70 -88 199 -88q274 0 275 383q0 39 -3.5 91t-3.5 62q0 334 -92 404h246q35 2 70 37v-1010q0 -18 33.5 -62.5t60.5 -60.5h-326q16 78 4 156q-109 -186 -329 -187q-190 0 -305 114t-115 294v592q0 14 -37 63t-55 60z M279 1386q0 66 49 111q45 39 100 39q72 0 111 -57q28 -44 28 -93q0 -63 -44 -106t-99 -43q-61 0 -103 47t-42 102zM707 1386q0 66 49 111q45 39 100 39q70 0 111 -57q28 -44 28 -93q0 -66 -46 -107.5t-97 -41.5q-61 0 -103 47t-42 102z" />
<glyph unicode="&#xfd;" horiz-adv-x="1132" d="M-102 -424l208 154q92 -55 140 -56q102 0 203 144q92 127 92 200q0 6 -49 76q-57 78 -76 113q-113 223 -226 485q-92 221 -124 275q-55 94 -140 129h246q66 2 223 -338q121 -272 242 -543q74 180 149 360q135 342 136 402q0 41 -9 59q-12 27 -57 60h326 q-96 -145 -254 -611q-162 -471 -279 -659q-195 -309 -467 -309q-119 0 -284 59zM289 1176l497 368q25 -27 68 -86t68 -86z" />
<glyph unicode="&#xfe;" horiz-adv-x="1284" d="M66 -481q12 4 52 54t40 71v1794q0 47 -82 125h235q37 2 68 39l8 -644q127 158 385 158q246 0 397 -168q144 -160 144 -385q0 -252 -161 -422t-407 -170q-102 0 -153 33q-70 43 -143 184q143 -57 249 -57q193 0 291 127q82 106 82 272q0 164 -82 285q-98 143 -276 143 q-96 0 -199 -59q-133 -76 -133 -194v-1065q0 -18 32.5 -61.5t61.5 -59.5h-409z" />
<glyph unicode="&#xff;" horiz-adv-x="1134" d="M-102 -424l208 154q92 -55 140 -56q102 0 203 144q92 127 92 200q0 6 -49 76q-57 78 -76 113q-113 223 -226 485q-92 221 -124 275q-55 94 -140 129h246q66 2 223 -338q121 -272 242 -543q74 180 149 360q135 342 136 402q0 41 -9 59q-12 27 -57 60h326 q-96 -145 -254 -611q-162 -471 -279 -659q-195 -309 -467 -309q-119 0 -284 59zM223 1386q0 68 47 109t103 41q70 0 108 -57q31 -44 31 -93q0 -59 -43 -104t-100 -45q-61 0 -103.5 48t-42.5 101zM662 1386q0 68 46 109t101 41q70 0 111 -57q30 -46 30 -93q0 -66 -45 -107.5 t-100 -41.5q-61 0 -102 48t-41 101z" />
<glyph unicode="&#x152;" horiz-adv-x="2371" d="M47 786q0 346 235.5 581t583.5 235q164 0 295 -54q141 -59 318 -207q-2 129 -111 224h854v-281q-66 102 -262 102q-70 0 -250 -18q-8 -8 -8 -420q195 -14 391 0v-221q-63 45 -98 47h-291v-571q193 -35 315 -35q234 0 437 129l-121 -295h-967q29 12 68 64.5t45 78.5l-6 88 q-205 -270 -596 -270q-360 0 -596 234.5t-236 588.5zM317 815q0 -270 132 -459q160 -225 454 -225q274 0 422 178q137 167 137 441t-125 458q-152 225 -452 226q-285 0 -436 -189q-131 -166 -132 -430z" />
<glyph unicode="&#x153;" horiz-adv-x="2111" d="M55 535q0 268 189 434q180 158 444 157q311 0 479 -252q178 252 471 252q188 0 345 -135t157 -323v-80h-840q-6 -6 -6 -43q0 -186 138 -305q127 -109 299 -109q201 0 389 119q-45 -178 -176 -240q-84 -39 -250 -39q-145 0 -271 47q-168 63 -245 197q-223 -244 -508 -244 q-248 0 -424 152q-190 162 -191 412zM297 567q0 -186 88 -301q100 -135 299 -135q172 0 274.5 99.5t102.5 281.5q0 168 -86 295q-106 162 -305 162q-176 0 -274.5 -112t-98.5 -290zM1305 719h583q-45 250 -272 250q-240 0 -311 -250z" />
<glyph unicode="&#x178;" horiz-adv-x="1390" d="M-66 1561h256q74 2 287 -330q106 -178 215 -357q86 125 172 252q168 254 168 312q0 61 -82 123h408q-10 -18 -293 -422q-190 -274 -281 -457q-18 -35 -18 -94q0 -41 8 -96l8 -54q0 -16 -3 -63t-3 -76q0 -213 127 -295h-465q82 47 99 160q4 29 4 260l6 58q6 59 6 102 q0 68 -16 98q-96 182 -287 481q-254 401 -316 398zM279 1851q0 68 47 109t102 41q70 0 111 -62q28 -45 28 -88q0 -57 -43 -102t-100 -45q-61 0 -103 47t-42 100zM707 1851q0 68 47 109t102 41q70 0 111 -57q28 -44 28 -93q0 -63 -46 -105t-97 -42q-61 0 -103 47t-42 100z " />
<glyph unicode="&#x2c6;" horiz-adv-x="907" d="M158 1176l387 360l385 -360q-111 0 -251 68.5t-130 68.5q6 0 -146.5 -71t-244.5 -66z" />
<glyph unicode="&#x2dc;" horiz-adv-x="1046" d="M170 1229q45 150 89 191.5t140 41.5q12 0 171 -19.5t169 -19.5q174 0 254 84q-47 -117 -71 -159q-70 -115 -148 -115q-18 0 -35 6l-399 55q-57 -8 -86 -16q-47 -16 -84 -49z" />
<glyph unicode="&#x2000;" horiz-adv-x="1047" />
<glyph unicode="&#x2001;" horiz-adv-x="2095" />
<glyph unicode="&#x2002;" horiz-adv-x="1047" />
<glyph unicode="&#x2003;" horiz-adv-x="2095" />
<glyph unicode="&#x2004;" horiz-adv-x="698" />
<glyph unicode="&#x2005;" horiz-adv-x="523" />
<glyph unicode="&#x2006;" horiz-adv-x="349" />
<glyph unicode="&#x2007;" horiz-adv-x="349" />
<glyph unicode="&#x2008;" horiz-adv-x="261" />
<glyph unicode="&#x2009;" horiz-adv-x="419" />
<glyph unicode="&#x200a;" horiz-adv-x="116" />
<glyph unicode="&#x2010;" horiz-adv-x="800" d="M37 477q47 55 92 111q88 100 109 100h483q39 1 88 17q-174 -203 -201 -203h-473q-4 0 -98 -25z" />
<glyph unicode="&#x2011;" horiz-adv-x="800" d="M37 477q47 55 92 111q88 100 109 100h483q39 1 88 17q-174 -203 -201 -203h-473q-4 0 -98 -25z" />
<glyph unicode="&#x2012;" horiz-adv-x="800" d="M37 477q47 55 92 111q88 100 109 100h483q39 1 88 17q-174 -203 -201 -203h-473q-4 0 -98 -25z" />
<glyph unicode="&#x2013;" horiz-adv-x="1271" d="M-102 477q47 55 92 111q88 100 108 100h1106q39 1 88 17q-172 -203 -200 -203h-1096q-6 0 -98 -25z" />
<glyph unicode="&#x2014;" horiz-adv-x="2437" d="M-102 477q49 59 98 121q78 90 113 90h2287q39 1 88 17q-174 -203 -200 -203h-2288q-4 0 -98 -25z" />
<glyph unicode="&#x2018;" horiz-adv-x="499" d="M195 1298q0 43 65 172q74 150 135 150q29 0 62 -33q-121 -106 -123 -184q45 -20 90 -39q51 -24 51 -94q0 -55 -39 -94t-92 -39q-74 0 -117 59q-33 47 -32 102z" />
<glyph unicode="&#x2019;" horiz-adv-x="530" d="M176 1485q0 55 39 95t92 40q74 0 115 -61q35 -50 35 -103q0 -55 -66 -180q-74 -139 -135 -139q-29 0 -61 30q117 115 122 187q-45 18 -90 39q-51 25 -51 92z" />
<glyph unicode="&#x201a;" horiz-adv-x="552" d="M176 125q0 57 39 96t92 39q74 0 115 -61q35 -50 35 -101q0 -57 -66 -180q-74 -141 -135 -141q-29 0 -61 33q117 113 122 184q-45 20 -90 39q-51 25 -51 92z" />
<glyph unicode="&#x201c;" horiz-adv-x="890" d="M195 1298q0 43 65 172q74 150 135 150q29 0 62 -33q-121 -106 -123 -184q45 -20 90 -39q51 -24 51 -94q0 -55 -39 -94t-92 -39q-74 0 -117 59q-33 47 -32 102zM586 1298q0 43 65 172q74 150 135 150q29 0 62 -33q-121 -106 -123 -184q45 -20 90 -39q51 -24 51 -94 q0 -55 -40 -94t-91 -39q-74 0 -117 59q-33 47 -32 102z" />
<glyph unicode="&#x201d;" horiz-adv-x="921" d="M176 1485q0 55 39 95t92 40q74 0 115 -61q35 -50 35 -103q0 -55 -66 -180q-74 -139 -135 -139q-29 0 -61 30q117 115 122 187q-45 18 -90 39q-51 25 -51 92zM567 1485q0 55 39 95t92 40q72 0 115 -61q35 -50 35 -103q0 -55 -66 -180q-74 -139 -135 -139q-29 0 -61 30 q117 115 123 187q-45 18 -91 39q-51 25 -51 92z" />
<glyph unicode="&#x201e;" horiz-adv-x="944" d="M176 125q0 57 39 96t92 39q74 0 115 -61q35 -50 35 -101q0 -57 -66 -180q-74 -141 -135 -141q-29 0 -61 33q117 113 122 184q-45 20 -90 39q-51 25 -51 92zM567 125q0 57 39 96t92 39q72 0 115 -61q35 -50 35 -101q0 -57 -66 -180q-74 -141 -135 -141q-29 0 -61 33 q117 113 123 184q-45 20 -91 39q-51 25 -51 92z" />
<glyph unicode="&#x2022;" horiz-adv-x="645" d="M186 838q0 92 78 155q70 59 156 60q94 0 158 -78q55 -68 55 -146q0 -100 -76 -165q-68 -59 -147 -60q-100 0 -166 78q-57 70 -58 156z" />
<glyph unicode="&#x2026;" horiz-adv-x="2189" d="M252 131q0 59 51 102q45 37 96 37q68 0 109 -47t41 -102q0 -66 -46 -108t-104 -42q-74 0 -114 60q-33 45 -33 100zM1042 131q0 59 52 102q45 37 98 37q66 0 106.5 -47t40.5 -102q0 -66 -46 -108t-101 -42q-70 0 -113 60q-37 47 -37 100zM1833 131q0 59 51 102 q47 37 98 37q68 0 109 -46t41 -103q0 -66 -47 -108t-103 -42q-74 0 -116 62q-33 45 -33 98z" />
<glyph unicode="&#x202f;" horiz-adv-x="419" />
<glyph unicode="&#x2039;" horiz-adv-x="516" d="M186 586l254 381h62l-129 -375l129 -377h-62z" />
<glyph unicode="&#x203a;" horiz-adv-x="440" d="M121 215l139 381l-139 371h72l253 -371l-253 -381h-72z" />
<glyph unicode="&#x205f;" horiz-adv-x="523" />
<glyph unicode="&#x2122;" horiz-adv-x="1972" d="M2 1430v133h723v-127h-274v-764h-160v758h-289zM877 672v891h229l258 -623l266 623h221v-891h-143v751l-305 -751h-80l-289 751v-751h-157z" />
<glyph unicode="&#x25fc;" horiz-adv-x="1095" d="M0 0v1096h1096v-1096h-1096z" />
</font>
</defs>
</svg>
